<?xml version="1.0" standalone="no"?>
<!DOCTYPE svg PUBLIC "-//W3C//DTD SVG 1.1//EN" "http://www.w3.org/Graphics/SVG/1.1/DTD/svg11.dtd" >
<svg xmlns="http://www.w3.org/2000/svg">
<metadata>Generated by IcoMoon</metadata>
<defs>
<font id="webico" horiz-adv-x="1024">
<font-face units-per-em="1024" ascent="960" descent="-64" />
<missing-glyph horiz-adv-x="1024" />
<glyph unicode="&#x20;" d="" horiz-adv-x="512" />
<glyph unicode="&#xe600;" d="M512 960c-282.77 0-512-229.23-512-512s229.23-512 512-512 512 229.23 512 512-229.23 512-512 512zM512 64c-212.078 0-384 171.922-384 384s171.922 384 384 384c212.078 0 384-171.922 384-384 0-212.078-171.922-384-384-384zM448 704c0 35.346 28.654 64 64 64s64-28.654 64-64c0-35.346-28.654-64-64-64-35.346 0-64 28.654-64 64zM640 640c0 35.346 28.654 64 64 64s64-28.654 64-64c0-35.346-28.654-64-64-64-35.346 0-64 28.654-64 64zM256 640c0 35.346 28.654 64 64 64s64-28.654 64-64c0-35.346-28.654-64-64-64-35.346 0-64 28.654-64 64zM448 256v-64h128v64l-64 320z" />
<glyph unicode="&#xe601;" d="M0 832v-768h1024v768h-1024zM192 128h-128v128h128v-128zM192 384h-128v128h128v-128zM192 640h-128v128h128v-128zM768 128h-512v640h512v-640zM960 128h-128v128h128v-128zM960 384h-128v128h128v-128zM960 640h-128v128h128v-128zM384 640v-384l256 192z" />
<glyph unicode="&#xe602;" d="M363.722 237.948l41.298 57.816-45.254 45.256-57.818-41.296c-10.722 5.994-22.204 10.774-34.266 14.192l-11.682 70.084h-64l-11.68-70.086c-12.062-3.418-23.544-8.198-34.266-14.192l-57.818 41.298-45.256-45.256 41.298-57.816c-5.994-10.72-10.774-22.206-14.192-34.266l-70.086-11.682v-64l70.086-11.682c3.418-12.060 8.198-23.544 14.192-34.266l-41.298-57.816 45.254-45.256 57.818 41.296c10.722-5.994 22.204-10.774 34.266-14.192l11.682-70.084h64l11.68 70.086c12.062 3.418 23.544 8.198 34.266 14.192l57.818-41.296 45.254 45.256-41.298 57.816c5.994 10.72 10.774 22.206 14.192 34.266l70.088 11.68v64l-70.086 11.682c-3.418 12.060-8.198 23.544-14.192 34.266zM224 96c-35.348 0-64 28.654-64 64s28.652 64 64 64 64-28.654 64-64-28.652-64-64-64zM1024 576v64l-67.382 12.25c-1.242 8.046-2.832 15.978-4.724 23.79l57.558 37.1-24.492 59.128-66.944-14.468c-4.214 6.91-8.726 13.62-13.492 20.13l39.006 56.342-45.256 45.254-56.342-39.006c-6.512 4.766-13.22 9.276-20.13 13.494l14.468 66.944-59.128 24.494-37.1-57.558c-7.812 1.892-15.744 3.482-23.79 4.724l-12.252 67.382h-64l-12.252-67.382c-8.046-1.242-15.976-2.832-23.79-4.724l-37.098 57.558-59.128-24.492 14.468-66.944c-6.91-4.216-13.62-8.728-20.13-13.494l-56.342 39.006-45.254-45.254 39.006-56.342c-4.766-6.51-9.278-13.22-13.494-20.13l-66.944 14.468-24.492-59.128 57.558-37.1c-1.892-7.812-3.482-15.742-4.724-23.79l-67.384-12.252v-64l67.382-12.25c1.242-8.046 2.832-15.978 4.724-23.79l-57.558-37.1 24.492-59.128 66.944 14.468c4.216-6.91 8.728-13.618 13.494-20.13l-39.006-56.342 45.254-45.256 56.342 39.006c6.51-4.766 13.22-9.276 20.13-13.492l-14.468-66.944 59.128-24.492 37.102 57.558c7.81-1.892 15.742-3.482 23.788-4.724l12.252-67.384h64l12.252 67.382c8.044 1.242 15.976 2.832 23.79 4.724l37.1-57.558 59.128 24.492-14.468 66.944c6.91 4.216 13.62 8.726 20.13 13.492l56.342-39.006 45.256 45.256-39.006 56.342c4.766 6.512 9.276 13.22 13.492 20.13l66.944-14.468 24.492 59.13-57.558 37.1c1.892 7.812 3.482 15.742 4.724 23.79l67.382 12.25zM672 468.8c-76.878 0-139.2 62.322-139.2 139.2s62.32 139.2 139.2 139.2 139.2-62.322 139.2-139.2c0-76.878-62.32-139.2-139.2-139.2z" />
<glyph unicode="&#xe603;" d="M1024 384v64h-193.29c-5.862 72.686-31.786 139.026-71.67 192.25h161.944l70.060 280.24-62.090 15.522-57.94-231.76h-174.68c-0.892 0.694-1.796 1.374-2.698 2.056 6.71 19.502 10.362 40.422 10.362 62.194 0.002 105.76-85.958 191.498-191.998 191.498s-192-85.738-192-191.5c0-21.772 3.65-42.692 10.362-62.194-0.9-0.684-1.804-1.362-2.698-2.056h-174.68l-57.94 231.76-62.090-15.522 70.060-280.24h161.944c-39.884-53.222-65.806-119.562-71.668-192.248h-193.29v-64h193.37c3.802-45.664 15.508-88.812 33.638-127.75h-123.992l-70.060-280.238 62.090-15.524 57.94 231.762h112.354c58.692-78.032 147.396-127.75 246.66-127.75s187.966 49.718 246.662 127.75h112.354l57.94-231.762 62.090 15.524-70.060 280.238h-123.992c18.13 38.938 29.836 82.086 33.636 127.75h193.37z" />
<glyph unicode="&#xe604;" d="M1009.996 131.024l-301.544 301.544c-18.668 18.668-49.214 18.668-67.882 0l-22.626-22.626-184 184 302.056 302.058h-320l-142.058-142.058-14.060 14.058h-67.882v-67.882l14.058-14.058-206.058-206.060 160-160 206.058 206.058 184-184-22.626-22.626c-18.668-18.668-18.668-49.214 0-67.882l301.544-301.544c18.668-18.668 49.214-18.668 67.882 0l113.136 113.136c18.67 18.666 18.67 49.214 0.002 67.882z" />
<glyph unicode="&#xe605;" d="M256 768l-128 128h-64v-64l128-128zM320 960h64v-128h-64zM576 640h128v-64h-128zM640 832v64h-64l-128-128 64-64zM0 640h128v-64h-128zM320 384h64v-128h-64zM64 384v-64h64l128 128-64 64zM1010 78l-636.118 636.118c-18.668 18.668-49.214 18.668-67.882 0l-60.118-60.118c-18.668-18.668-18.668-49.214 0-67.882l636.118-636.118c18.668-18.668 49.214-18.668 67.882 0l60.118 60.118c18.668 18.668 18.668 49.214 0 67.882zM480 416l-192 192 64 64 192-192-64-64z" />
<glyph unicode="&#xe606;" d="M896 704h-192v128c0 35.2-28.8 64-64 64h-256c-35.2 0-64-28.8-64-64v-128h-192c-70.4 0-128-57.6-128-128v-512c0-70.4 57.6-128 128-128h768c70.4 0 128 57.6 128 128v512c0 70.4-57.6 128-128 128zM384 832h256v-128h-256v128zM768 256h-192v-192h-128v192h-192v128h192v192h128v-192h192v-128z" />
<glyph unicode="&#xe607;" d="M448 384v448c-247.424 0-448-200.576-448-448s200.576-448 448-448 448 200.576 448 448c0 72.034-17.028 140.084-47.236 200.382l-400.764-200.382zM912.764 712.382c-73.552 146.816-225.374 247.618-400.764 247.618v-448l400.764 200.382z" />
<glyph unicode="&#xe608;" d="M128 64h896v-128h-1024v1024h128zM288 128c-53.020 0-96 42.98-96 96s42.98 96 96 96c2.828 0 5.622-0.148 8.388-0.386l103.192 171.986c-9.84 15.070-15.58 33.062-15.58 52.402 0 53.020 42.98 96 96 96 53.020 0 96-42.98 96-96 0-19.342-5.74-37.332-15.58-52.402l103.192-171.986c2.766 0.238 5.56 0.386 8.388 0.386 2.136 0 4.248-0.094 6.35-0.23l170.356 298.122c-10.536 15.408-16.706 34.036-16.706 54.11 0 53.020 42.98 96 96 96 53.020 0 96-42.98 96-96 0-53.020-42.98-96-96-96-2.14 0-4.248 0.094-6.35 0.232l-170.356-298.124c10.536-15.406 16.706-34.036 16.706-54.11 0-53.020-42.98-96-96-96-53.020 0-96 42.98-96 96 0 19.34 5.74 37.332 15.578 52.402l-103.19 171.984c-2.766-0.238-5.56-0.386-8.388-0.386s-5.622 0.146-8.388 0.386l-103.192-171.986c9.84-15.068 15.58-33.060 15.58-52.4 0-53.020-42.98-96-96-96z" />
<glyph unicode="&#xe609;" d="M0 128h1024v-128h-1024zM128 384h128v-192h-128zM320 640h128v-448h-128zM512 448h128v-256h-128zM704 832h128v-640h-128z" />
<glyph unicode="&#xe60a;" d="M288 576h-192c-17.6 0-32-14.4-32-32v-576c0-17.6 14.4-32 32-32h192c17.6 0 32 14.4 32 32v576c0 17.6-14.4 32-32 32zM288 0h-192v256h192v-256zM608 704h-192c-17.6 0-32-14.4-32-32v-704c0-17.6 14.4-32 32-32h192c17.6 0 32 14.4 32 32v704c0 17.6-14.4 32-32 32zM608 0h-192v320h192v-320zM928 832h-192c-17.6 0-32-14.4-32-32v-832c0-17.6 14.4-32 32-32h192c17.6 0 32 14.4 32 32v832c0 17.6-14.4 32-32 32zM928 0h-192v384h192v-384z" />
<glyph unicode="&#xe60b;" d="M771.516 640c18.126 12.88 35.512 27.216 51.444 43.148 33.402 33.402 55.746 74.5 62.912 115.722 7.858 45.186-3.672 87.14-31.63 115.1-22.3 22.298-52.51 34.086-87.364 34.086-49.632 0-101.922-23.824-143.46-65.362-66.476-66.476-105.226-158.238-126.076-223.722-15.44 65.802-46.206 154.644-106.018 214.458-32.094 32.092-73.114 48.57-111.846 48.57-31.654 0-61.78-11.004-84.26-33.486-49.986-49.988-43.232-137.786 15.086-196.104 20.792-20.792 45.098-38.062 70.72-52.412h-217.024v-256h64v-448h768v448.002h64v256h-188.484zM674.326 831.782c27.724 27.724 62.322 44.274 92.55 44.274 10.7 0 25.708-2.254 36.45-12.998 26.030-26.028 11.412-86.308-31.28-128.998-43.946-43.946-103.060-74.168-154.432-94.060h-50.672c18.568 57.548 52.058 136.456 107.384 191.782zM233.934 799.11c-0.702 9.12-0.050 26.248 12.196 38.494 10.244 10.244 23.788 12.396 33.348 12.396v0c21.258 0 43.468-10.016 60.932-27.48 33.872-33.872 61.766-87.772 80.668-155.876 0.51-1.84 1.008-3.67 1.496-5.486-1.816 0.486-3.646 0.984-5.486 1.496-68.104 18.904-122.002 46.798-155.874 80.67-15.828 15.826-25.77 36.16-27.28 55.786zM448 0h-256v416h256v-416zM448 448h-320v128h320v-128zM832 0h-256v416h256v-416zM896 448h-320v128h320v-128z" />
<glyph unicode="&#xe60c;" d="M832 768v128h-640v-128h-192v-128c0-106.038 85.958-192 192-192 20.076 0 39.43 3.086 57.62 8.802 46.174-66.008 116.608-113.796 198.38-130.396v-198.406h-64c-70.694 0-128-57.306-128-128h512c0 70.694-57.306 128-128 128h-64v198.406c81.772 16.6 152.206 64.386 198.38 130.396 18.19-5.716 37.544-8.802 57.62-8.802 106.042 0 192 85.962 192 192v128h-192zM192 524c-63.962 0-116 52.038-116 116v64h116v-64c0-40.186 7.43-78.632 20.954-114.068-6.802-1.246-13.798-1.932-20.954-1.932zM948 640c0-63.962-52.038-116-116-116-7.156 0-14.152 0.686-20.954 1.932 13.524 35.436 20.954 73.882 20.954 114.068v64h116v-64z" />
<glyph unicode="&#xe60d;" d="M608 576c-32-32-32-32-32-64v-448h128c35.346 0 64-28.654 64-64h-512c0 35.346 28.654 64 64 64h128v448c0 32 0 32-32 64l-274.746 274.746c-24.89 24.89-16.454 45.254 18.746 45.254h704c35.2 0 43.634-20.364 18.746-45.254l-274.736-274.736c-0.004-0.004-0.006-0.008-0.010-0.010z" />
<glyph unicode="&#xe60e;" d="M832 640h-64v96c0 88.366-171.922 160-384 160-212.078 0-384-71.634-384-160v-576c0-88.366 171.922-160 384-160s384 71.634 384 160v96h64c105.6 0 192 86.4 192 192s-86.4 192-192 192zM176.056 770.398c57.942 19.090 131.79 29.602 207.944 29.602s150.004-10.512 207.944-29.602c36.994-12.188 59.408-25.246 71.41-34.398-12.002-9.152-34.416-22.208-71.41-34.398-57.94-19.090-131.79-29.602-207.944-29.602s-150.002 10.512-207.944 29.602c-36.994 12.19-59.408 25.246-71.41 34.398 12.002 9.152 34.416 22.208 71.41 34.398zM904.364 391.636c-8.828-8.828-27.89-23.636-56.364-23.636h-80v160h80c28.474 0 47.536-14.81 56.364-23.638s23.636-27.888 23.636-56.362-14.808-47.536-23.636-56.364z" />
<glyph unicode="&#xe60f;" d="M864 960c-88.372 0-160-71.632-160-160v-480h128v-384h192v864c0 88.368-71.634 160-160 160zM416 960c-17.676 0-32-14.328-32-32v-224c0-8.836-14.328-16-32-16-17.676 0-32 7.164-32 16v224c0 17.672-14.328 32-32 32-17.674 0-32-14.328-32-32v-224c0-8.836-14.328-16-32-16-17.674 0-32 7.164-32 16v224c0 17.672-14.328 32-32 32-17.674 0-32-14.328-32-32v-224c0-8.836-14.328-16-32-16s-32 7.164-32 16v224c0 17.672-14.328 32-32 32s-32-14.328-32-32v-288c0-28.318 25.058-44.11 53.004-64 35.21-25.064 74.996-56.636 74.996-128v-512h192v512c0 71.364 39.786 102.936 74.992 128 27.946 19.89 53.008 35.682 53.008 64v288c0 17.672-14.326 32-32 32z" />
<glyph unicode="&#xe610;" d="M717.548 960c-168.764-278.986-302.3-141.782-497.59-342.43-172.336-177.066-112.582-390.306 32.524-463.744 143.23 73.188 289.768 236.822 398.45 473.724 0 0 97.666-299.144-201.49-587.374 145.268-170.148 391.828-51.772 460.726 218.918 74.898 294.274-120.388 593.896-192.62 700.906zM97.012-6.242c0.116-2.906 3.422-57.758 75.366-57.758 52.344 0 317.832 144.678 454.266 520.204-206.438-365.214-506.12-455.838-529.632-462.446z" />
<glyph unicode="&#xe611;" d="M704 896l-320-320h-192l-192-256c0 0 203.416 56.652 322.066 30.084l-322.066-414.084 421.902 328.144c58.838-134.654-37.902-328.144-37.902-328.144l256 192v192l320 320 64 320-320-64z" />
<glyph unicode="&#xe612;" d="M512 896c282.77 0 512-229.23 512-512 0-192.792-106.576-360.666-264.008-448h-495.984c-157.432 87.334-264.008 255.208-264.008 448 0 282.77 229.23 512 512 512zM801.914 94.086c77.438 77.44 120.086 180.398 120.086 289.914h-90v64h85.038c-7.014 44.998-21.39 88.146-42.564 128h-106.474v64h64.284c-9.438 11.762-19.552 23.096-30.37 33.914-46.222 46.22-101.54 80.038-161.914 99.798v-69.712h-64v85.040c-20.982 3.268-42.36 4.96-64 4.96s-43.018-1.69-64-4.96v-85.040h-64v69.712c-60.372-19.76-115.692-53.576-161.914-99.798-10.818-10.818-20.932-22.152-30.37-33.914h64.284v-64h-106.476c-21.174-39.854-35.552-83.002-42.564-128h85.040v-64h-90c0-109.516 42.648-212.474 120.086-289.914 10.71-10.71 21.924-20.728 33.56-30.086h192.354l36.572 512h54.856l36.572-512h192.354c11.636 9.358 22.852 19.378 33.56 30.086z" />
<glyph unicode="&#xe613;" d="M512 960c-282.77 0-512-229.23-512-512s229.23-512 512-512 512 229.23 512 512-229.23 512-512 512zM302.836 125.848c11.106 30.632 17.164 63.688 17.164 98.152 0 124.35-78.81 230.292-189.208 270.606 10.21 84.924 48.254 163.498 109.678 224.924 72.53 72.526 168.96 112.47 271.53 112.47s199-39.944 271.53-112.47c61.428-61.426 99.468-140 109.682-224.924-110.402-40.314-189.212-146.256-189.212-270.606 0-34.468 6.060-67.52 17.166-98.15-61.706-40.242-133.77-61.85-209.166-61.85-75.394 0-147.458 21.608-209.164 61.848zM551.754 319.004c13.878-3.494 24.246-16.080 24.246-31.004v-64c0-17.6-14.4-32-32-32h-64c-17.6 0-32 14.4-32 32v64c0 14.924 10.368 27.51 24.246 31.004l23.754 448.996h32l23.754-448.996z" />
<glyph unicode="&#xe614;" d="M1010.174 44.25l-548.634 499.458 25.534 25.598c20.894 20.954 32.188 48.030 33.918 75.61 1.002 0.45 2.002 0.912 2.958 1.442l102.99 64.402c13.934 16.392 12.916 42.268-2.284 57.502l-179.12 179.608c-15.19 15.234-40.998 16.262-57.344 2.284l-64.236-103.268c-0.526-0.966-0.99-1.966-1.44-2.974-27.502-1.736-54.5-13.056-75.398-34.006l-97.428-97.702c-20.898-20.956-32.184-48.026-33.918-75.604-1.004-0.45-2.004-0.916-2.964-1.446l-102.986-64.406c-13.942-16.39-12.916-42.264 2.276-57.496l179.12-179.604c15.194-15.238 40.996-16.262 57.35-2.286l64.228 103.27c0.528 0.958 0.988 1.96 1.442 2.966 27.502 1.738 54.504 13.050 75.398 34.004l28.292 28.372 498.122-550.114c14.436-15.944 36.7-18.518 49.474-5.712l50.356 50.488c12.764 12.808 10.196 35.132-5.706 49.614z" />
<glyph unicode="&#xe615;" d="M321.008-64c-68.246 142.008-31.902 223.378 20.55 300.044 57.44 83.956 72.244 167.066 72.244 167.066 0 0 45.154-58.7 27.092-150.508 79.772 88.8 94.824 230.28 82.782 284.464 180.314-126.012 257.376-398.856 153.522-601.066 552.372 312.532 137.398 780.172 65.154 832.85 24.082-52.676 28.648-141.85-20-185.126-82.352 312.276-285.972 376.276-285.972 376.276 24.082-161.044-87.296-337.144-194.696-468.73-3.774 64.216-7.782 108.528-41.55 169.98-7.58-116.656-96.732-211.748-120.874-328.628-32.702-158.286 24.496-274.18 241.748-396.622z" />
<glyph unicode="&#xe616;" d="M956.29 155.518l-316.29 527.024v213.458h32c17.6 0 32 14.4 32 32s-14.4 32-32 32h-320c-17.6 0-32-14.4-32-32s14.4-32 32-32h32v-213.458l-316.288-527.024c-72.442-120.734-16.512-219.518 124.288-219.518h640c140.8 0 196.73 98.784 124.29 219.518zM241.038 320l206.962 344.938v231.062h128v-231.062l206.964-344.938h-541.926z" />
<glyph unicode="&#xe617;" d="M859.502 933.458l-4.594 26.542h-246.908l6.602-37.542c22.346-127.1 74.322-436.536 74.322-564.458 0-98.15-79.368-178-176.924-178-97.556 0-176.922 79.85-176.922 178 0 127.926 51.976 437.36 74.324 564.458l6.598 37.542h-246.908l-4.594-26.542c-27.076-156.422-72.498-439.186-72.498-575.458 0-232.692 188.412-422 420-422 231.588 0 420 189.308 420 422 0 136.266-45.422 419.032-72.498 575.458zM512 0c-196.298 0-356 160.598-356 358 0 80.772 16.92 217.076 36.166 346h116.346c-19.994-131.234-37.434-268.056-37.434-346 0-133.44 108.078-242 240.922-242 132.846 0 240.924 108.56 240.924 242 0 77.942-17.442 214.764-37.436 346h116.346c19.246-128.926 36.166-265.232 36.166-346 0-197.402-159.702-358-356-358z" />
<glyph unicode="&#xe618;" d="M192-64h640l64 704h-768zM640 832v128h-256v-128h-320v-192l64 64h768l64-64v192h-320zM576 832h-128v64h128v-64z" />
<glyph unicode="&#xe619;" d="M800 832h-576c-53.020 0-96-42.98-96-96v-32h768v32c0 53.020-42.98 96-96 96zM632.32 896l14.116-101h-268.872l14.114 101h240.642zM640 960h-256c-26.4 0-50.99-21.392-54.642-47.538l-18.714-133.924c-3.654-26.146 14.956-47.538 41.356-47.538h320c26.4 0 45.010 21.392 41.358 47.538l-18.714 133.924c-3.654 26.146-28.244 47.538-54.644 47.538v0zM816 640h-608c-35.2 0-61.392-28.682-58.206-63.738l52.412-576.526c3.186-35.054 34.594-63.736 69.794-63.736h480c35.2 0 66.608 28.682 69.794 63.736l52.41 576.526c3.188 35.056-23.004 63.738-58.204 63.738zM384 64h-96l-32 448h128v-448zM576 64h-128v448h128v-448zM736 64h-96v448h128l-32-448z" />
<glyph unicode="&#xe61a;" d="M960 704h-256v64c0 35.2-28.8 64-64 64h-256c-35.204 0-64-28.8-64-64v-64h-256c-35.2 0-64-28.8-64-64v-576c0-35.202 28.796-64 64-64h896c35.2 0 64 28.798 64 64v576c0 35.2-28.8 64-64 64zM384 767.884c0.034 0.040 0.074 0.082 0.114 0.116h255.772c0.042-0.034 0.082-0.076 0.118-0.116v-63.884h-256.004v63.884zM960 448h-128v-96c0-17.602-14.4-32-32-32h-64c-17.604 0-32 14.398-32 32v96h-384v-96c0-17.602-14.4-32-32-32h-64c-17.602 0-32 14.398-32 32v96h-128v64h896v-64z" />
<glyph unicode="&#xe61b;" d="M768 320.032l-182.82 182.822 438.82 329.15-128.010 127.996-548.52-219.442-172.7 172.706c-49.78 49.778-119.302 61.706-154.502 26.508-35.198-35.198-23.268-104.726 26.51-154.5l172.686-172.684-219.464-548.582 127.99-128.006 329.19 438.868 182.826-182.828v-255.98h127.994l63.992 191.988 191.988 63.996v127.992l-255.98-0.004z" />
<glyph unicode="&#xe61c;" d="M1024 384l-128 256h-192v128c0 35.2-28.8 64-64 64h-576c-35.2 0-64-28.8-64-64v-512l64-64h81.166c-10.898-18.832-17.166-40.678-17.166-64 0-70.692 57.308-128 128-128s128 57.308 128 128c0 23.322-6.268 45.168-17.166 64h354.334c-10.898-18.832-17.168-40.678-17.168-64 0-70.692 57.308-128 128-128s128 57.308 128 128c0 23.322-6.27 45.168-17.168 64h81.168v192zM704 384v160h132.668l80-160h-212.668z" />
<glyph unicode="&#xe61d;" d="M704-64h320l-256 1024h-192l32-256h-192l32 256h-192l-256-1024h320l32 256h320l32-256zM368 320l32 256h224l32-256h-288z" />
<glyph unicode="&#xe61e;" d="M960 768v64l-448-128-448 128v-64l320-128v-256l-128-448h64l192 448 192-448h64l-128 448v256zM416 864c0 53.019 42.981 96 96 96s96-42.981 96-96c0-53.019-42.981-96-96-96-53.019 0-96 42.981-96 96z" />
<glyph unicode="&#xe61f;" d="M1024 512h-100.924c-27.64 178.24-168.836 319.436-347.076 347.076v100.924h-128v-100.924c-178.24-27.64-319.436-168.836-347.076-347.076h-100.924v-128h100.924c27.64-178.24 168.836-319.436 347.076-347.076v-100.924h128v100.924c178.24 27.64 319.436 168.836 347.076 347.076h100.924v128zM792.822 512h-99.762c-19.284 54.55-62.51 97.778-117.060 117.060v99.762c107.514-24.49 192.332-109.31 216.822-216.822zM512 384c-35.346 0-64 28.654-64 64s28.654 64 64 64c35.346 0 64-28.654 64-64 0-35.346-28.654-64-64-64zM448 728.822v-99.762c-54.55-19.282-97.778-62.51-117.060-117.060h-99.762c24.49 107.512 109.31 192.332 216.822 216.822zM231.178 384h99.762c19.282-54.55 62.51-97.778 117.060-117.060v-99.762c-107.512 24.49-192.332 109.308-216.822 216.822zM576 167.178v99.762c54.55 19.284 97.778 62.51 117.060 117.060h99.762c-24.49-107.514-109.308-192.332-216.822-216.822z" />
<glyph unicode="&#xe620;" d="M960 960l-448-128-448 128c0 0-4.5-51.698 0-128l448-140.090 448 140.090c4.498 76.302 0 128 0 128zM72.19 764.894c23.986-250.696 113.49-672.234 439.81-828.894 326.32 156.66 415.824 578.198 439.81 828.894l-439.81-165.358-439.81 165.358z" />
<glyph unicode="&#xe621;" d="M384 960l-384-512h384l-256-512 896 640h-512l384 384z" />
<glyph unicode="&#xe622;" d="M640 813.412v-135.958c36.206-15.804 69.5-38.408 98.274-67.18 60.442-60.44 93.726-140.8 93.726-226.274s-33.286-165.834-93.726-226.274c-60.44-60.44-140.798-93.726-226.274-93.726s-165.834 33.286-226.274 93.726c-60.44 60.44-93.726 140.8-93.726 226.274s33.286 165.834 93.726 226.274c28.774 28.774 62.068 51.378 98.274 67.182v135.956c-185.048-55.080-320-226.472-320-429.412 0-247.424 200.578-448 448-448 247.424 0 448 200.576 448 448 0 202.94-134.95 374.332-320 429.412zM448 960h128v-512h-128z" />
<glyph unicode="&#xe623;" d="M1024 677.5l-90.506 90.5-178.746-178.752-101.5 101.502 178.75 178.75-90.5 90.5-178.75-178.75-114.748 114.75-86.626-86.624 512.002-512.002 86.624 86.624-114.752 114.752zM274.748 210.746c165.768-165.762 385.194-36.362 519.292 75.464l-443.824 443.824c-111.824-134.096-241.228-353.522-75.468-519.288zM191.998 255.996l127.994-127.996-191.992-191.992-127.996 127.994z" />
<glyph unicode="&#xe624;" d="M448 165.49l-205.254 237.254 58.508 58.51 146.746-114.744 274.744 242.744 58.512-58.508zM831.772 832c0.078-0.066 0.162-0.15 0.228-0.23v-767.542c-0.066-0.078-0.15-0.162-0.228-0.228h-639.544c-0.080 0.066-0.162 0.15-0.228 0.228v767.544c0.066 0.080 0.15 0.162 0.23 0.228h-128.23v-768c0-70.4 57.6-128 128-128h640c70.4 0 128 57.6 128 128v768h-128.228zM640 832v64c0 35.346-28.654 64-64 64h-128c-35.346 0-64-28.654-64-64v-64h-128v-128h512v128h-128zM576 832h-128v64h128v-64z" />
<glyph unicode="&#xe625;" d="M0 960h256v-256h-256zM384 896h640v-128h-640zM0 576h256v-256h-256zM384 512h640v-128h-640zM0 192h256v-256h-256zM384 128h640v-128h-640z" />
<glyph unicode="&#xe626;" d="M384 896h640v-128h-640v128zM384 512h640v-128h-640v128zM384 128h640v-128h-640v128zM0 832c0 70.692 57.308 128 128 128s128-57.308 128-128c0-70.692-57.308-128-128-128-70.692 0-128 57.308-128 128zM0 448c0 70.692 57.308 128 128 128s128-57.308 128-128c0-70.692-57.308-128-128-128-70.692 0-128 57.308-128 128zM0 64c0 70.692 57.308 128 128 128s128-57.308 128-128c0-70.692-57.308-128-128-128-70.692 0-128 57.308-128 128z" />
<glyph unicode="&#xe627;" d="M384 128h640v-128h-640zM384 512h640v-128h-640zM384 896h640v-128h-640zM192 960v-256h-64v192h-64v64zM128 434v-50h128v-64h-192v146l128 60v50h-128v64h192v-146zM256 256v-320h-192v64h128v64h-128v64h128v64h-128v64z" />
<glyph unicode="&#xe628;" d="M0 576h704v-128h-704v128zM0 768h704v-128h-704v128zM0 384h704v-128h-704v128zM0 192h704v-128h-704v128zM768 384l128-192 128 192h-256zM1024 448l-128 192-128-192h256z" />
<glyph unicode="&#xe629;" d="M64 768h896v-192h-896zM64 512h896v-192h-896zM64 256h896v-192h-896z" />
<glyph unicode="&#xe62a;" d="M976 192h-16v208c0 61.756-50.242 112-112 112h-272v128h16c26.4 0 48 21.6 48 48v160c0 26.4-21.6 48-48 48h-160c-26.4 0-48-21.6-48-48v-160c0-26.4 21.6-48 48-48h16v-128h-272c-61.756 0-112-50.244-112-112v-208h-16c-26.4 0-48-21.6-48-48v-160c0-26.4 21.6-48 48-48h160c26.4 0 48 21.6 48 48v160c0 26.4-21.6 48-48 48h-16v192h256v-192h-16c-26.4 0-48-21.6-48-48v-160c0-26.4 21.6-48 48-48h160c26.4 0 48 21.6 48 48v160c0 26.4-21.6 48-48 48h-16v192h256v-192h-16c-26.4 0-48-21.6-48-48v-160c0-26.4 21.6-48 48-48h160c26.4 0 48 21.6 48 48v160c0 26.4-21.6 48-48 48zM192 0h-128v128h128v-128zM576 0h-128v128h128v-128zM448 704v128h128v-128h-128zM960 0h-128v128h128v-128z" />
<glyph unicode="&#xe62b;" d="M1024 302.458c0 82.090-56.678 150.9-132.996 169.48-3.242 128.7-108.458 232.062-237.862 232.062-75.792 0-143.266-35.494-186.854-90.732-24.442 31.598-62.69 51.96-105.708 51.96-73.81 0-133.642-59.874-133.642-133.722 0-6.436 0.48-12.76 1.364-18.954-11.222 2.024-22.766 3.138-34.57 3.138-106.998 0.002-193.732-86.786-193.732-193.842 0-107.062 86.734-193.848 193.73-193.848l656.262 0.012c96.138 0.184 174.008 78.212 174.008 174.446z" />
<glyph unicode="&#xe62c;" d="M891.004 599.94c-3.242 128.698-108.458 232.060-237.862 232.060-75.792 0-143.266-35.494-186.854-90.732-24.442 31.598-62.69 51.96-105.708 51.96-73.81 0-133.642-59.874-133.642-133.722 0-6.436 0.48-12.76 1.364-18.954-11.222 2.024-22.766 3.138-34.57 3.138-106.998 0.002-193.732-86.786-193.732-193.842 0-107.062 86.734-193.848 193.73-193.848h99.76l218.51-218.51 218.51 218.51 119.482 0.012c96.138 0.184 174.008 78.212 174.008 174.446 0 82.090-56.678 150.9-132.996 169.482zM512 128l-192 192h128v192h128v-192h128l-192-192z" />
<glyph unicode="&#xe62d;" d="M892.268 573.51c2.444 11.11 3.732 22.648 3.732 34.49 0 88.366-71.634 160-160 160-14.222 0-28.014-1.868-41.132-5.352-24.798 77.352-97.29 133.352-182.868 133.352-87.348 0-161.054-58.336-184.326-138.17-22.742 6.622-46.792 10.17-71.674 10.17-141.384 0-256-114.616-256-256 0-141.388 114.616-256 256-256h128v-192h256v192h224c88.366 0 160 71.632 160 160 0 78.72-56.854 144.162-131.732 157.51zM576 320v-192h-128v192h-160l224 224 224-224h-160z" />
<glyph unicode="&#xe62e;" d="M896 448h-160l-224-224-224 224h-160l-128-256v-64h1024v64l-128 256zM0 64h1024v-64h-1024v64zM576 640v256h-128v-256h-224l288-288 288 288h-224z" />
<glyph unicode="&#xe62f;" d="M0 64h1024v-64h-1024zM1024 192v-64h-1024v64l128 256h256v-128h256v128h256zM224 640l288 288 288-288h-224v-256h-128v256z" />
<glyph unicode="&#xe630;" d="M736 512l-256-256-256 256h160v384h192v-384zM480 256h-480v-256h960v256h-480zM896 128h-128v64h128v-64z" />
<glyph unicode="&#xe631;" d="M480 256h-480v-256h960v256h-480zM896 128h-128v64h128v-64zM224 640l256 256 256-256h-160v-320h-192v320z" />
<glyph unicode="&#xe632;" d="M480 896c-265.096 0-480-214.904-480-480 0-265.098 214.904-480 480-480 265.098 0 480 214.902 480 480 0 265.096-214.902 480-480 480zM751.59 256c8.58 40.454 13.996 83.392 15.758 128h127.446c-3.336-44.196-13.624-87.114-30.68-128h-112.524zM208.41 576c-8.58-40.454-13.996-83.392-15.758-128h-127.444c3.336 44.194 13.622 87.114 30.678 128h112.524zM686.036 576c9.614-40.962 15.398-83.854 17.28-128h-191.316v128h174.036zM512 640v187.338c14.59-4.246 29.044-11.37 43.228-21.37 26.582-18.74 52.012-47.608 73.54-83.486 14.882-24.802 27.752-52.416 38.496-82.484h-155.264zM331.232 722.484c21.528 35.878 46.956 64.748 73.54 83.486 14.182 10 28.638 17.124 43.228 21.37v-187.34h-155.264c10.746 30.066 23.616 57.68 38.496 82.484zM448 576v-128h-191.314c1.88 44.146 7.666 87.038 17.278 128h174.036zM95.888 256c-17.056 40.886-27.342 83.804-30.678 128h127.444c1.762-44.608 7.178-87.546 15.758-128h-112.524zM256.686 384h191.314v-128h-174.036c-9.612 40.96-15.398 83.854-17.278 128zM448 192v-187.34c-14.588 4.246-29.044 11.372-43.228 21.37-26.584 18.74-52.014 47.61-73.54 83.486-14.882 24.804-27.75 52.418-38.498 82.484h155.266zM628.768 109.516c-21.528-35.876-46.958-64.746-73.54-83.486-14.184-9.998-28.638-17.124-43.228-21.37v187.34h155.266c-10.746-30.066-23.616-57.68-38.498-82.484zM512 256v128h191.314c-1.88-44.146-7.666-87.040-17.28-128h-174.034zM767.348 448c-1.762 44.608-7.178 87.546-15.758 128h112.524c17.056-40.886 27.344-83.806 30.68-128h-127.446zM830.658 640h-95.9c-18.638 58.762-44.376 110.294-75.316 151.428 42.536-20.34 81.058-47.616 114.714-81.272 21.48-21.478 40.362-44.938 56.502-70.156zM185.844 710.156c33.658 33.658 72.18 60.932 114.714 81.272-30.942-41.134-56.676-92.666-75.316-151.428h-95.898c16.138 25.218 35.022 48.678 56.5 70.156zM129.344 192h95.898c18.64-58.762 44.376-110.294 75.318-151.43-42.536 20.34-81.058 47.616-114.714 81.274-21.48 21.478-40.364 44.938-56.502 70.156zM774.156 121.844c-33.656-33.658-72.18-60.934-114.714-81.274 30.942 41.134 56.678 92.668 75.316 151.43h95.9c-16.14-25.218-35.022-48.678-56.502-70.156z" />
<glyph unicode="&#xe633;" d="M874.040 810.038c96.702-96.704 149.96-225.28 149.96-362.040s-53.258-265.334-149.96-362.038c-96.706-96.702-225.28-149.96-362.040-149.96-136.76 0-265.334 53.258-362.040 149.96-96.702 96.704-149.96 225.278-149.96 362.038 0 136.76 53.254 265.336 149.96 362.040 96.706 96.704 225.28 149.962 362.040 149.962 136.76 0 265.334-53.258 362.040-149.962zM828.784 131.214c63.058 63.060 104.986 141.608 122.272 227.062-13.474-19.836-26.362-27.194-34.344 17.206-8.22 72.39-74.708 26.148-116.516 51.86-44.004-29.658-142.906 57.662-126.098-40.824 25.934-44.422 140.008 59.45 83.148-34.542-36.274-65.616-132.642-210.932-120.106-286.258 1.582-109.744-112.134-22.884-151.314 13.52-26.356 72.92-8.982 200.374-77.898 236.086-74.802 3.248-139.004 10.046-167.994 93.67-17.446 59.828 18.564 148.894 82.678 162.644 93.85 58.966 127.374-69.054 215.39-71.434 27.328 28.594 101.816 37.686 107.992 69.75-57.75 10.19 73.268 48.558-5.528 70.382-43.47-5.112-71.478-45.074-48.368-78.958-84.238-19.642-86.936 121.904-167.91 77.258-2.058-70.59-132.222-22.886-45.036-8.572 29.956 13.088-48.86 51.016-6.28 44.124 20.916 1.136 91.332 25.812 72.276 42.402 39.21 24.34 72.16-58.29 110.538 1.882 27.708 46.266-11.62 54.808-46.35 31.356-19.58 21.924 34.57 69.276 82.332 89.738 15.918 6.82 31.122 10.536 42.746 9.484 24.058-27.792 68.55-32.606 70.878 3.342-59.582 28.534-125.276 43.608-193.292 43.608-97.622 0-190.47-31.024-267.308-88.39 20.65-9.46 32.372-21.238 12.478-36.296-15.456-46.054-78.17-107.876-133.224-99.124-28.586-49.296-47.412-103.606-55.46-160.528 46.112-15.256 56.744-45.45 46.836-55.55-23.496-20.488-37.936-49.53-45.376-81.322 15.010-91.836 58.172-176.476 125.27-243.576 84.616-84.614 197.118-131.214 316.784-131.214 119.664 0 232.168 46.6 316.784 131.214z" />
<glyph unicode="&#xe634;" d="M953.396 885.358l-4.028 4.042c-94.148 94.134-248.194 94.134-342.326 0l-218.106-218.136c-94.134-94.132-94.134-248.176 0-342.31l4.026-4.026c7.832-7.848 16.146-14.924 24.736-21.458l79.848 79.85c-9.302 5.494-18.126 12.072-26.116 20.060l-4.042 4.042c-51.114 51.098-51.114 134.272 0 185.39l218.128 218.112c51.116 51.118 134.274 51.118 185.386 0l4.042-4.024c51.1-51.116 51.1-134.292 0-185.39l-98.686-98.686c17.132-42.308 25.248-87.4 24.538-132.386l152.604 152.604c94.134 94.136 94.134 248.178-0.004 342.316zM631.042 571.066c-7.832 7.832-16.146 14.922-24.736 21.44l-79.848-79.832c9.304-5.496 18.126-12.074 26.116-20.062l4.042-4.040c51.116-51.116 51.116-134.272 0-185.388l-218.13-218.134c-51.118-51.102-134.276-51.102-185.388 0l-4.042 4.042c-51.098 51.12-51.098 134.276 0 185.388l98.688 98.686c-17.134 42.306-25.246 87.402-24.538 132.386l-152.602-152.598c-94.136-94.132-94.136-248.178 0-342.324l4.026-4.032c94.152-94.128 248.192-94.128 342.328 0l218.11 218.118c94.134 94.132 94.134 248.194 0 342.326l-4.026 4.024z" />
<glyph unicode="&#xe635;" d="M832 787.694c76.466 0 145.092 41.622 192 73.106v-595.69c-46.908-31.486-115.534-73.11-192-73.11s-145.092 22.67-192 54.156c-46.908 31.48-115.534 54.15-192 54.15-76.466 0-145.090-38.916-192-70.396v595.69c46.91 31.484 115.534 70.4 192 70.4s145.092-22.668 192-54.152c46.908-31.484 115.534-54.154 192-54.154zM128 960c35.346 0 64-28.654 64-64v-960h-128v960c0 35.346 28.654 64 64 64z" />
<glyph unicode="&#xe636;" d="M697.832 632.952l-64.952 64.922-324.81-324.742c-53.814-53.792-53.814-141.048 0-194.844 53.804-53.792 141.060-53.792 194.874 0l389.772 389.708c89.714 89.662 89.714 235.062 0 324.726-89.666 89.704-235.112 89.704-324.782 0l-409.23-409.178c-0.29-0.304-0.612-0.576-0.876-0.846-125.102-125.096-125.102-327.856 0-452.906 125.054-125.056 327.868-125.056 452.988 0 0.274 0.274 0.516 0.568 0.82 0.876l0.032-0.034 279.332 279.292-64.986 64.92-279.33-279.262c-0.296-0.268-0.564-0.57-0.846-0.844-89.074-89.058-233.98-89.058-323.076 0-89.062 89.042-89.062 233.922 0 322.978 0.304 0.304 0.604 0.582 0.888 0.846l-0.046 0.060 409.28 409.166c53.712 53.738 141.144 53.738 194.886 0 53.712-53.734 53.712-141.148 0-194.84l-389.772-389.7c-17.936-17.922-47.054-17.922-64.972 0-17.894 17.886-17.894 47.032 0 64.92l324.806 324.782z" />
<glyph unicode="&#xe637;" d="M512 768c-223.318 0-416.882-130.042-512-320 95.118-189.958 288.682-320 512-320 223.314 0 416.878 130.042 512 320-95.116 189.958-288.686 320-512 320zM764.45 598.296c60.162-38.374 111.142-89.774 149.434-150.296-38.292-60.522-89.274-111.922-149.436-150.298-75.594-48.216-162.89-73.702-252.448-73.702-89.56 0-176.856 25.486-252.45 73.704-60.16 38.372-111.14 89.772-149.434 150.296 38.292 60.524 89.274 111.924 149.434 150.296 3.918 2.5 7.876 4.922 11.858 7.3-9.958-27.328-15.408-56.822-15.408-87.596 0-141.384 114.616-256 256-256s256 114.616 256 256c0 30.774-5.45 60.268-15.408 87.598 3.98-2.378 7.938-4.802 11.858-7.302zM512 550c0-53.020-42.98-96-96-96s-96 42.98-96 96 42.98 96 96 96 96-42.98 96-96z" />
<glyph unicode="&#xe638;" d="M839.322 663.584c77.644-55.030 141.37-129.092 184.678-215.584-95.122-189.958-288.686-320-512-320-62.566 0-122.792 10.212-179.178 29.084l77.956 77.956c33.058-7.3 66.972-11.040 101.222-11.040 89.558 0 176.854 25.486 252.446 73.704 60.162 38.376 111.144 89.776 149.436 150.298-37.052 58.566-86.014 108.55-143.65 146.494l69.090 69.088zM512 262c-22.724 0-44.752 2.976-65.728 8.534l313.186 313.184c5.562-20.972 8.542-42.994 8.542-65.718 0-141.384-114.616-256-256-256zM960 960h-53.738l-219.612-219.612c-55.076 17.924-113.754 27.612-174.65 27.612-223.318 0-416.882-130.042-512-320 42.658-85.192 105.128-158.308 181.194-213.068l-181.194-181.194v-53.738h53.738l906.262 906.262v53.738zM416 646c48.044 0 87.846-35.294 94.892-81.37l-109.524-109.524c-46.074 7.048-81.368 46.85-81.368 94.894 0 53.020 42.98 96 96 96zM110.116 448c38.292 60.524 89.274 111.924 149.434 150.296 3.918 2.5 7.876 4.922 11.858 7.3-9.958-27.328-15.408-56.822-15.408-87.596 0-58.524 19.65-112.448 52.698-155.562l-58.55-58.55c-56.072 37.642-103.754 86.772-140.032 144.112z" />
<glyph unicode="&#xe639;" d="M512 640c-209.368 0-395.244-100.556-512-256 116.756-155.446 302.632-256 512-256 209.368 0 395.244 100.554 512 256-116.756 155.444-302.632 256-512 256zM448 512c35.346 0 64-28.654 64-64s-28.654-64-64-64-64 28.654-64 64 28.654 64 64 64zM773.616 254.704c-39.648-20.258-81.652-35.862-124.846-46.376-44.488-10.836-90.502-16.328-136.77-16.328-46.266 0-92.282 5.492-136.768 16.324-43.194 10.518-85.198 26.122-124.846 46.376-63.020 32.202-120.222 76.41-167.64 129.298 47.418 52.888 104.62 97.1 167.64 129.298 32.336 16.522 66.242 29.946 101.082 40.040-19.888-30.242-31.468-66.434-31.468-105.336 0-106.040 85.962-192 192-192 106.038 0 192 85.96 192 192 0 38.902-11.582 75.094-31.466 105.34 34.838-10.096 68.744-23.52 101.082-40.042 63.022-32.198 120.218-76.408 167.638-129.298-47.42-52.886-104.618-97.1-167.638-129.296zM860.918 716.278c-108.72 55.554-226.112 83.722-348.918 83.722-122.806 0-240.198-28.168-348.918-83.722-58.772-30.032-113.732-67.904-163.082-112.076v-109.206c55.338 58.566 120.694 107.754 192.194 144.29 99.62 50.904 207.218 76.714 319.806 76.714s220.186-25.81 319.804-76.716c71.502-36.536 136.858-85.724 192.196-144.29v109.206c-49.35 44.174-104.308 82.046-163.082 112.078z" />
<glyph unicode="&#xe63a;" d="M192 960v-1024l320 320 320-320v1024z" />
<glyph unicode="&#xe63b;" d="M256 832v-896l320 320 320-320v896zM768 960h-640v-896l64 64v768h576z" />
<glyph unicode="&#xe63c;" d="M512 538c-49.626 0-90-40.374-90-90s40.374-90 90-90c49.626 0 90 40.374 90 90 0 49.626-40.374 90-90 90zM512 640v0c106.040 0 192-85.96 192-192s-85.96-192-192-192c-106.040 0-192 85.96-192 192 0 106.040 85.96 192 192 192zM877.254 173.254c24.996-24.994 24.994-65.516 0-90.508-24.994-24.996-65.514-24.996-90.508 0l-64 64c-24.996 24.994-24.996 65.514 0 90.508 24.992 24.994 65.514 24.996 90.508 0l64-64zM301.254 749.254c24.996-24.994 24.994-65.516 0-90.508-24.994-24.996-65.514-24.996-90.508 0l-64 64c-24.996 24.994-24.996 65.514 0 90.508 24.992 24.994 65.514 24.996 90.508 0l64-64zM786.744 813.254c24.994 24.996 65.516 24.994 90.508 0 24.996-24.994 24.996-65.514 0.002-90.508l-64-64c-24.996-24.996-65.516-24.996-90.508 0-24.996 24.992-24.996 65.514 0 90.508l63.998 64zM210.746 237.254c24.994 24.996 65.514 24.994 90.508 0 24.996-24.994 24.996-65.514 0-90.508l-64-64c-24.994-24.996-65.514-24.996-90.508 0-24.994 24.992-24.996 65.514 0 90.508l64 64zM512 896c35.346 0 64-28.654 64-64v-64c0-35.346-28.654-64-64-64s-64 28.654-64 64v64c0 35.346 28.654 64 64 64zM512 192c35.346 0 64-28.652 64-64v-64c0-35.348-28.654-64-64-64s-64 28.652-64 64v64c0 35.348 28.654 64 64 64zM64 448c0 35.346 28.654 64 64 64h64c35.346 0 64-28.654 64-64 0-35.348-28.654-64-64-64h-64c-35.346 0-64 28.652-64 64zM768 448c0 35.346 28.652 64 64 64h64c35.348 0 64-28.654 64-64s-28.652-64-64-64h-64c-35.348 0-64 28.654-64 64z" />
<glyph unicode="&#xe63d;" d="M512 704c-141.384 0-256-114.616-256-256s114.616-256 256-256 256 114.616 256 256-114.616 256-256 256zM512 288v320c88.224 0 160-71.776 160-160s-71.776-160-160-160zM512 128c35.346 0 64-28.654 64-64v-64c0-35.346-28.654-64-64-64s-64 28.654-64 64v64c0 35.346 28.654 64 64 64zM512 768c-35.346 0-64 28.654-64 64v64c0 35.346 28.654 64 64 64s64-28.654 64-64v-64c0-35.346-28.654-64-64-64zM960 512c35.346 0 64-28.654 64-64s-28.654-64-64-64h-64c-35.346 0-64 28.654-64 64s28.654 64 64 64h64zM192 448c0-35.346-28.654-64-64-64h-64c-35.346 0-64 28.654-64 64s28.654 64 64 64h64c35.346 0 64-28.654 64-64zM828.784 221.726l45.256-45.256c24.992-24.992 24.992-65.516 0-90.51-24.994-24.992-65.518-24.992-90.51 0l-45.256 45.256c-24.992 24.992-24.992 65.516 0 90.51 24.994 24.992 65.518 24.992 90.51 0zM195.216 674.274l-45.256 45.256c-24.994 24.994-24.994 65.516 0 90.51 24.994 24.994 65.516 24.994 90.51 0l45.256-45.256c24.994-24.994 24.994-65.516 0-90.51s-65.516-24.994-90.51 0zM828.784 674.274c-24.992-24.992-65.516-24.992-90.51 0-24.992 24.994-24.992 65.516 0 90.51l45.256 45.254c24.992 24.994 65.516 24.994 90.51 0 24.992-24.994 24.992-65.516 0-90.51l-45.256-45.254zM195.216 221.726c24.992 24.992 65.516 24.992 90.508 0 24.994-24.994 24.994-65.518 0-90.51l-45.254-45.256c-24.994-24.992-65.516-24.992-90.51 0-24.994 24.994-24.994 65.518 0 90.51l45.256 45.256z" />
<glyph unicode="&#xe63e;" d="M512 960c-282.77 0-512-229.23-512-512s229.23-512 512-512 512 229.23 512 512-229.23 512-512 512zM128 448c0 212.078 171.922 384 384 384v-768c-212.078 0-384 171.922-384 384z" />
<glyph unicode="&#xe63f;" d="M1024 562.95l-353.78 51.408-158.22 320.582-158.216-320.582-353.784-51.408 256-249.538-60.432-352.352 316.432 166.358 316.432-166.358-60.434 352.352 256.002 249.538zM512 206.502l-223.462-117.48 42.676 248.83-180.786 176.222 249.84 36.304 111.732 226.396 111.736-226.396 249.836-36.304-180.788-176.222 42.678-248.83-223.462 117.48z" />
<glyph unicode="&#xe640;" d="M1024 562.95l-353.78 51.408-158.22 320.582-158.216-320.582-353.784-51.408 256-249.538-60.432-352.352 316.432 166.358 316.432-166.358-60.434 352.352 256.002 249.538zM512 206.502l-0.942-0.496 0.942 570.768 111.736-226.396 249.836-36.304-180.788-176.222 42.678-248.83-223.462 117.48z" />
<glyph unicode="&#xe641;" d="M1024 562.95l-353.78 51.408-158.22 320.582-158.216-320.582-353.784-51.408 256-249.538-60.432-352.352 316.432 166.358 316.432-166.358-60.434 352.352 256.002 249.538z" />
<glyph unicode="&#xe642;" d="M1024 601.844c0-86.362-37.218-164.030-96.49-217.844h0.49l-320-320c-32-32-64-64-96-64s-64 32-96 64l-319.51 320c-59.272 53.814-96.49 131.482-96.49 217.844 0 162.458 131.698 294.156 294.156 294.156 86.362 0 164.030-37.218 217.844-96.49 53.814 59.272 131.482 96.49 217.844 96.49 162.456 0 294.156-131.698 294.156-294.156z" />
<glyph unicode="&#xe643;" d="M1024 601.844c0 162.458-131.7 294.156-294.156 294.156-86.362 0-164.030-37.218-217.844-96.49-53.814 59.272-131.482 96.49-217.844 96.49-162.458 0-294.156-131.698-294.156-294.156 0-86.362 37.218-164.030 96.49-217.844h-0.49l320-320c32-32 64-64 96-64s64 32 96 64l319.51 320c59.272 53.814 96.49 131.482 96.49 217.844zM841.468 478.768l-323.978-324.258c-1.678-1.678-3.532-3.532-5.49-5.48-1.96 1.95-3.814 3.802-5.49 5.48l-323.978 324.256c-35.166 31.928-54.532 75.638-54.532 123.078 0 91.618 74.538 166.156 166.156 166.156 47.44 0 91.15-19.366 123.076-54.532l94.768-104.38 94.768 104.378c31.928 35.168 75.636 54.534 123.076 54.534 91.618 0 166.156-74.538 166.156-166.156 0-47.44-19.368-91.15-54.532-123.076z" />
<glyph unicode="&#xe644;" d="M1024 601.844c0-86.362-37.218-164.030-96.49-217.844h0.49l-320-320c-32-32-64-64-96-64s-64 32-96 64l-319.51 320c-59.272 53.814-96.49 131.482-96.49 217.844 0 162.458 131.698 294.156 294.156 294.156 55.45 0 107.302-15.364 151.572-42.036l-93.728-149.964 224-128-128-320 352 384-224 128 78.892 118.34c23.932 6.288 49.046 9.66 74.952 9.66 162.456 0 294.156-131.698 294.156-294.156z" />
<glyph unicode="&#xe645;" d="M928 384c73 0 32-192-32-192 32 0 0-160-64-160 0-64-64-96-128-96-270.352 0-175.264 67.65-448 96v512c240.922 72.268 480 253.424 480 416 53 0 192-64 0-384 0 0 160 0 192 0 96 0 64-192 0-192zM192 544v-512h64v-32h-128c-35.2 0-64 43.2-64 96v384c0 52.8 28.8 96 64 96h128v-32h-64z" />
<glyph unicode="&#xe646;" d="M96 512c-73 0-32 192 32 192-32 0 0 160 64 160 0 64 64 96 128 96 270.352 0 175.264-67.65 448-96v-512c-240.922-72.268-480-253.424-480-416-53 0-192 64 0 384 0 0-160 0-192 0-96 0-64 192 0 192zM832 352v512h-64v32h128c35.2 0 64-43.2 64-96v-384c0-52.8-28.8-96-64-96h-128v32h64z" />
<glyph unicode="&#xe647;" d="M512-64c282.77 0 512 229.23 512 512s-229.23 512-512 512-512-229.23-512-512 229.23-512 512-512zM512 864c229.75 0 416-186.25 416-416s-186.25-416-416-416-416 186.25-416 416 186.25 416 416 416zM512 361.24c115.95 0 226.23 30.806 320 84.92-14.574-178.438-153.128-318.16-320-318.16-166.868 0-305.422 139.872-320 318.304 93.77-54.112 204.050-85.064 320-85.064zM256 608c0 53.019 28.654 96 64 96s64-42.981 64-96c0-53.019-28.654-96-64-96-35.346 0-64 42.981-64 96zM640 608c0 53.019 28.654 96 64 96s64-42.981 64-96c0-53.019-28.654-96-64-96-35.346 0-64 42.981-64 96z" />
<glyph unicode="&#xe648;" d="M512 960c-282.77 0-512-229.23-512-512s229.23-512 512-512 512 229.23 512 512-229.23 512-512 512zM704 704c35.348 0 64-42.98 64-96s-28.652-96-64-96-64 42.98-64 96 28.652 96 64 96zM320 704c35.346 0 64-42.98 64-96s-28.654-96-64-96-64 42.98-64 96 28.654 96 64 96zM512 64c-166.868 0-305.422 139.872-320 318.304 93.77-54.114 204.050-85.064 320-85.064 115.95 0 226.23 30.806 320 84.92-14.574-178.438-153.128-318.16-320-318.16z" />
<glyph unicode="&#xe649;" d="M512-64c282.77 0 512 229.23 512 512s-229.23 512-512 512-512-229.23-512-512 229.23-512 512-512zM512 864c229.75 0 416-186.25 416-416s-186.25-416-416-416-416 186.25-416 416 186.25 416 416 416zM256 640c0 35.346 28.654 64 64 64s64-28.654 64-64c0-35.346-28.654-64-64-64-35.346 0-64 28.654-64 64zM640 640c0 35.346 28.654 64 64 64s64-28.654 64-64c0-35.346-28.654-64-64-64-35.346 0-64 28.654-64 64zM704.098 332.74l82.328-49.396c-55.962-93.070-157.916-155.344-274.426-155.344s-218.464 62.274-274.426 155.344l82.328 49.396c39.174-65.148 110.542-108.74 192.098-108.74s152.924 43.592 192.098 108.74z" />
<glyph unicode="&#xe64a;" d="M512 960c-282.77 0-512-229.23-512-512s229.23-512 512-512 512 229.23 512 512-229.23 512-512 512zM704 704c35.346 0 64-28.654 64-64s-28.654-64-64-64-64 28.654-64 64 28.654 64 64 64zM320 704c35.346 0 64-28.654 64-64s-28.654-64-64-64-64 28.654-64 64 28.654 64 64 64zM512 128c-116.51 0-218.464 62.274-274.426 155.344l82.328 49.396c39.174-65.148 110.542-108.74 192.098-108.74s152.924 43.592 192.098 108.74l82.328-49.396c-55.962-93.070-157.916-155.344-274.426-155.344z" />
<glyph unicode="&#xe64b;" d="M512-64c282.77 0 512 229.23 512 512s-229.23 512-512 512-512-229.23-512-512 229.23-512 512-512zM512 864c229.75 0 416-186.25 416-416s-186.25-416-416-416-416 186.25-416 416 186.25 416 416 416zM256 640c0 35.346 28.654 64 64 64s64-28.654 64-64c0-35.346-28.654-64-64-64-35.346 0-64 28.654-64 64zM640 640c0 35.346 28.654 64 64 64s64-28.654 64-64c0-35.346-28.654-64-64-64-35.346 0-64 28.654-64 64zM768 384v-64h-64v-96c0-53.020-42.98-96-96-96s-96 42.98-96 96v96h-256v64h512z" />
<glyph unicode="&#xe64c;" d="M512 960c-282.77 0-512-229.23-512-512s229.23-512 512-512 512 229.23 512 512-229.23 512-512 512zM320 704c35.346 0 64-28.654 64-64s-28.654-64-64-64-64 28.654-64 64 28.654 64 64 64zM768 320h-64v-96c0-53.020-42.98-96-96-96s-96 42.98-96 96v96h-256v64h512v-64zM704 576c-35.346 0-64 28.654-64 64s28.654 64 64 64 64-28.654 64-64-28.654-64-64-64z" />
<glyph unicode="&#xe64d;" d="M512-64c282.77 0 512 229.23 512 512s-229.23 512-512 512-512-229.23-512-512 229.23-512 512-512zM512 864c229.75 0 416-186.25 416-416s-186.25-416-416-416-416 186.25-416 416 186.25 416 416 416zM256 640c0 35.346 28.654 64 64 64s64-28.654 64-64c0-35.346-28.654-64-64-64-35.346 0-64 28.654-64 64zM640 640c0 35.346 28.654 64 64 64s64-28.654 64-64c0-35.346-28.654-64-64-64-35.346 0-64 28.654-64 64zM319.902 179.26l-82.328 49.396c55.962 93.070 157.916 155.344 274.426 155.344 116.508 0 218.462-62.274 274.426-155.344l-82.328-49.396c-39.174 65.148-110.542 108.74-192.098 108.74-81.558 0-152.924-43.592-192.098-108.74z" />
<glyph unicode="&#xe64e;" d="M512 960c-282.77 0-512-229.23-512-512s229.23-512 512-512 512 229.23 512 512-229.23 512-512 512zM704 704c35.346 0 64-28.654 64-64s-28.654-64-64-64-64 28.654-64 64 28.654 64 64 64zM320 704c35.346 0 64-28.654 64-64s-28.654-64-64-64-64 28.654-64 64 28.654 64 64 64zM704.098 179.26c-39.174 65.148-110.544 108.74-192.098 108.74-81.556 0-152.924-43.592-192.098-108.74l-82.328 49.396c55.96 93.070 157.916 155.344 274.426 155.344 116.508 0 218.464-62.274 274.426-155.344l-82.328-49.396z" />
<glyph unicode="&#xe64f;" d="M512-64c282.77 0 512 229.23 512 512s-229.23 512-512 512-512-229.23-512-512 229.23-512 512-512zM512 864c229.75 0 416-186.25 416-416s-186.25-416-416-416-416 186.25-416 416 186.25 416 416 416zM542.74 248.972c140.248 27.706 249.11 91.542 288.454 176.594-21.654-167.956-161.518-297.566-330.85-297.566-119.242 0-223.858 64.282-282.892 160.948 70.41-55.058 194.534-65.808 325.288-39.976zM640 608c0 53.019 28.654 96 64 96s64-42.981 64-96c0-53.019-28.654-96-64-96-35.346 0-64 42.981-64 96zM352 588.5c-41.796 0-77.334-15.656-90.516-37.5-3.54 5.866-5.484 32.174-5.484 38.75 0 31.066 42.98 56.25 96 56.25 53.020 0 96-25.184 96-56.25 0-6.576-1.944-32.884-5.484-38.75-13.182 21.844-48.72 37.5-90.516 37.5z" />
<glyph unicode="&#xe650;" d="M512 960c-282.77 0-512-229.228-512-512 0-282.77 229.228-512 512-512 282.77 0 512 229.23 512 512 0 282.772-229.23 512-512 512zM704 704c35.346 0 64-42.98 64-96s-28.654-96-64-96-64 42.98-64 96 28.654 96 64 96zM352 647.938c59.646 0 102-22.332 102-57.282 0-7.398 3.812-42.994-0.17-49.594-14.828 24.576-54.81 42.188-101.83 42.188s-87.002-17.612-101.83-42.188c-3.982 6.6-0.17 42.196-0.17 49.594 0 34.95 42.354 57.282 102 57.282zM500.344 128c-119.242 0-223.858 64.28-282.892 160.952 70.41-55.060 194.534-65.81 325.288-39.978 140.248 27.706 249.11 91.542 288.454 176.594-21.654-167.96-161.518-297.568-330.85-297.568z" />
<glyph unicode="&#xe651;" d="M512-64c282.77 0 512 229.23 512 512s-229.23 512-512 512-512-229.23-512-512 229.23-512 512-512zM512 864c229.75 0 416-186.25 416-416s-186.25-416-416-416-416 186.25-416 416 186.25 416 416 416zM192 448v-64c0-140.8 115.2-256 256-256h128c140.8 0 256 115.2 256 256v64h-640zM384 203.012c-26.538 9.458-50.924 24.822-71.544 45.446-36.406 36.402-56.456 84.54-56.456 135.542h128v-180.988zM576 192h-128v192h128v-192zM711.544 248.458c-20.624-20.624-45.010-35.988-71.544-45.446v180.988h128c0-51.002-20.048-99.14-56.456-135.542zM225.352 576c0.002 0 0 0 0 0 9.768 0 18.108 7.056 19.724 16.69 6.158 36.684 37.668 63.31 74.924 63.31s68.766-26.626 74.924-63.31c1.616-9.632 9.956-16.69 19.722-16.69 9.768 0 18.108 7.056 19.724 16.688 1.082 6.436 1.628 12.934 1.628 19.312 0 63.962-52.038 116-116 116s-116-52.038-116-116c0-6.378 0.548-12.876 1.628-19.312 1.62-9.632 9.96-16.688 19.726-16.688zM609.352 576c0.002 0 0 0 0 0 9.77 0 18.112 7.056 19.724 16.69 6.158 36.684 37.668 63.31 74.924 63.31s68.766-26.626 74.924-63.31c1.616-9.632 9.958-16.69 19.722-16.69s18.108 7.056 19.722 16.688c1.082 6.436 1.628 12.934 1.628 19.312 0 63.962-52.038 116-116 116s-116-52.038-116-116c0-6.378 0.544-12.876 1.626-19.312 1.624-9.632 9.964-16.688 19.73-16.688z" />
<glyph unicode="&#xe652;" d="M512 960c-282.77 0-512-229.23-512-512s229.226-512 512-512c282.77 0 512 229.23 512 512s-229.23 512-512 512zM704 724c63.962 0 116-52.038 116-116 0-6.378-0.546-12.876-1.628-19.312-1.618-9.632-9.958-16.688-19.724-16.688s-18.108 7.056-19.722 16.69c-6.16 36.684-37.67 53.31-74.926 53.31s-68.766-16.626-74.924-53.31c-1.616-9.632-9.956-16.69-19.722-16.69-0.002 0 0 0-0.002 0-9.766 0-18.106 7.056-19.722 16.688-1.084 6.436-1.63 12.934-1.63 19.312 0 63.962 52.038 116 116 116zM320 724c63.962 0 116-52.038 116-116 0-6.378-0.548-12.876-1.628-19.312-1.618-9.632-9.956-16.688-19.724-16.688-9.768 0-18.106 7.056-19.722 16.69-6.16 36.684-37.67 53.31-74.926 53.31s-68.766-16.626-74.924-53.31c-1.616-9.632-9.956-16.69-19.722-16.69 0 0 0 0 0 0-9.766 0-18.106 7.056-19.724 16.688-1.082 6.436-1.63 12.934-1.63 19.312 0 63.962 52.038 116 116 116zM192 384h192v-247.846c-110.094 28.606-192 129.124-192 247.846zM448 128v256h128v-256h-128zM640 136.154v247.846h192c0-118.722-81.904-219.24-192-247.846z" />
<glyph unicode="&#xe653;" d="M512-64c282.77 0 512 229.23 512 512s-229.23 512-512 512-512-229.23-512-512 229.23-512 512-512zM512 864c229.75 0 416-186.25 416-416s-186.25-416-416-416-416 186.25-416 416 186.25 416 416 416zM800 704c17.6 0 32-14.4 32-32v-96c0-35.2-28.8-64-64-64h-128c-35.2 0-64 28.8-64 64h-128c0-35.2-28.8-64-64-64h-128c-35.2 0-64 28.8-64 64v96c0 17.6 14.4 32 32 32h192c17.6 0 32-14.4 32-32v-32h128v32c0 17.6 14.4 32 32 32h192zM512 192c93.208 0 174.772 49.818 219.546 124.278l54.88-32.934c-55.966-93.070-157.916-155.344-274.426-155.344-48.458 0-94.384 10.796-135.54 30.082l33.162 55.278c31.354-13.714 65.964-21.36 102.378-21.36z" />
<glyph unicode="&#xe654;" d="M512 960c-282.77 0-512-229.23-512-512s229.226-512 512-512c282.77 0 512 229.23 512 512s-229.23 512-512 512zM512 128c-48.458 0-94.384 10.796-135.542 30.082l33.162 55.276c31.356-13.712 65.966-21.358 102.38-21.358 93.208 0 174.772 49.818 219.542 124.278l54.882-32.934c-55.964-93.070-157.914-155.344-274.424-155.344zM832 576c0-35.2-28.8-64-64-64h-128c-35.2 0-64 28.8-64 64h-128c0-35.2-28.8-64-64-64h-128c-35.2 0-64 28.8-64 64v96c0 17.6 14.4 32 32 32h192c17.6 0 32-14.4 32-32v-32h128v32c0 17.6 14.4 32 32 32h192c17.6 0 32-14.4 32-32v-96z" />
<glyph unicode="&#xe655;" d="M512-64c282.77 0 512 229.23 512 512s-229.23 512-512 512-512-229.23-512-512 229.23-512 512-512zM512 864c229.75 0 416-186.25 416-416s-186.25-416-416-416-416 186.25-416 416 186.25 416 416 416zM704.098 179.26c-39.174 65.148-110.544 108.74-192.098 108.74-81.556 0-152.924-43.592-192.098-108.74l-82.328 49.396c55.96 93.070 157.916 155.344 274.426 155.344 116.508 0 218.464-62.274 274.426-155.344l-82.328-49.396zM767.042 679.76c4.284-17.144-6.14-34.518-23.282-38.804-17.626-4.45-38.522-12.12-56.936-21.35 10.648-11.43 17.174-26.752 17.174-43.606 0-35.346-28.654-64-64-64-35.346 0-64 28.654-64 64 0 1.17 0.036 2.33 0.098 3.484 2.032 47.454 45.212 78.946 81.592 97.138 34.742 17.37 69.102 26.060 70.548 26.422 17.146 4.288 34.518-6.138 38.806-23.284zM256.958 679.76c4.288 17.146 21.66 27.572 38.806 23.284 1.446-0.362 35.806-9.052 70.548-26.422 36.38-18.192 79.56-49.684 81.592-97.138 0.062-1.154 0.098-2.314 0.098-3.484 0-35.346-28.654-64-64-64s-64 28.654-64 64c0 16.854 6.526 32.176 17.174 43.606-18.414 9.23-39.31 16.9-56.936 21.35-17.142 4.286-27.566 21.66-23.282 38.804z" />
<glyph unicode="&#xe656;" d="M512 960c-282.77 0-512-229.23-512-512s229.23-512 512-512 512 229.23 512 512-229.23 512-512 512zM576.094 579.484c2.032 47.454 45.21 78.948 81.592 97.138 34.742 17.372 69.104 26.060 70.548 26.422 17.146 4.288 34.52-6.138 38.806-23.284 4.286-17.146-6.138-34.518-23.284-38.806-17.624-4.45-38.522-12.12-56.936-21.35 10.648-11.43 17.174-26.752 17.174-43.606 0-35.346-28.654-64-64-64s-64 28.654-64 64c0.002 1.17 0.038 2.332 0.1 3.486zM256.958 679.76c4.288 17.146 21.66 27.572 38.806 23.284 1.446-0.362 35.806-9.052 70.548-26.422 36.38-18.192 79.56-49.684 81.592-97.138 0.062-1.154 0.098-2.314 0.098-3.484 0-35.346-28.654-64-64-64s-64 28.654-64 64c0 16.854 6.526 32.176 17.174 43.606-18.414 9.23-39.31 16.9-56.936 21.35-17.142 4.286-27.566 21.66-23.282 38.804zM704.098 179.26c-39.174 65.148-110.544 108.74-192.098 108.74-81.556 0-152.924-43.592-192.098-108.74l-82.328 49.396c55.96 93.070 157.916 155.344 274.426 155.344 116.508 0 218.464-62.274 274.426-155.344l-82.328-49.396z" />
<glyph unicode="&#xe657;" d="M639.996 512c-35.346 0-64 28.654-63.998 64.002 0 1.17 0.036 2.33 0.098 3.484 2.032 47.454 45.212 78.946 81.592 97.138 34.742 17.37 69.102 26.060 70.548 26.422 17.146 4.288 34.518-6.138 38.806-23.284 4.284-17.146-6.14-34.518-23.284-38.806-17.626-4.45-38.522-12.12-56.936-21.35 10.648-11.43 17.174-26.752 17.174-43.606 0-35.346-28.654-64-64-64zM280.242 640.956c-17.144 4.286-27.568 21.66-23.282 38.804 4.286 17.146 21.66 27.572 38.806 23.284 1.444-0.362 35.806-9.050 70.548-26.422 36.382-18.19 79.56-49.684 81.592-97.138 0.062-1.154 0.098-2.316 0.098-3.484 0-35.346-28.654-64-64-64-35.346 0-64 28.654-64 64 0 16.854 6.526 32.176 17.174 43.606-18.414 9.23-39.312 16.9-56.936 21.35zM512 224c81.554 0 152.924 43.592 192.098 108.74l82.328-49.396c-55.962-93.070-157.916-155.344-274.426-155.344s-218.464 62.274-274.426 155.344l82.328 49.396c39.174-65.148 110.542-108.74 192.098-108.74zM1024 896c0 45.516-9.524 88.8-26.652 128-33.576-76.836-96.448-137.932-174.494-169.178-86.194 65.96-193.936 105.178-310.854 105.178s-224.66-39.218-310.854-105.178c-78.048 31.246-140.918 92.342-174.494 169.178-17.128-39.2-26.652-82.484-26.652-128 0-73.574 24.85-141.328 66.588-195.378-42.37-74.542-66.588-160.75-66.588-252.622 0-282.77 229.23-512 512-512s512 229.23 512 512c0 91.872-24.218 178.080-66.588 252.622 41.738 54.050 66.588 121.804 66.588 195.378zM512 32c-229.75 0-416 186.25-416 416s186.25 416 416 416 416-186.25 416-416-186.25-416-416-416z" />
<glyph unicode="&#xe658;" d="M1024 896c0 45.516-9.524 88.8-26.652 128-33.576-76.836-96.448-137.932-174.494-169.178-86.194 65.96-193.936 105.178-310.854 105.178s-224.66-39.218-310.854-105.178c-78.048 31.246-140.918 92.342-174.494 169.178-17.128-39.2-26.652-82.484-26.652-128 0-73.574 24.85-141.328 66.588-195.378-42.37-74.542-66.588-160.75-66.588-252.622 0-282.77 229.23-512 512-512s512 229.23 512 512c0 91.872-24.218 178.080-66.588 252.622 41.738 54.050 66.588 121.804 66.588 195.378zM576.094 579.484c2.032 47.454 45.21 78.948 81.592 97.138 34.742 17.372 69.104 26.060 70.548 26.422 17.146 4.288 34.52-6.138 38.806-23.284 4.286-17.146-6.138-34.518-23.284-38.806-17.624-4.45-38.522-12.12-56.936-21.35 10.648-11.43 17.174-26.752 17.174-43.606 0-35.346-28.654-64-64-64s-64 28.654-64 64c0.002 1.17 0.038 2.332 0.1 3.486zM256.958 679.76c4.288 17.146 21.66 27.572 38.806 23.284 1.446-0.362 35.806-9.052 70.548-26.422 36.38-18.192 79.56-49.684 81.592-97.138 0.062-1.154 0.098-2.314 0.098-3.484 0-35.346-28.654-64-64-64s-64 28.654-64 64c0 16.854 6.526 32.176 17.174 43.606-18.414 9.23-39.31 16.9-56.936 21.35-17.142 4.286-27.566 21.66-23.282 38.804zM512 128c-116.51 0-218.464 62.274-274.426 155.344l82.328 49.396c39.174-65.148 110.542-108.74 192.098-108.74 81.554 0 152.924 43.592 192.098 108.74l82.328-49.396c-55.962-93.070-157.916-155.344-274.426-155.344z" />
<glyph unicode="&#xe659;" d="M512-64c282.77 0 512 229.23 512 512s-229.23 512-512 512-512-229.23-512-512 229.23-512 512-512zM512 864c229.75 0 416-186.25 416-416s-186.25-416-416-416-416 186.25-416 416 186.25 416 416 416zM384 256c0 70.692 57.308 128 128 128s128-57.308 128-128c0-70.692-57.308-128-128-128-70.692 0-128 57.308-128 128zM640 608c0 53.019 28.654 96 64 96s64-42.981 64-96c0-53.019-28.654-96-64-96-35.346 0-64 42.981-64 96zM256 608c0 53.019 28.654 96 64 96s64-42.981 64-96c0-53.019-28.654-96-64-96-35.346 0-64 42.981-64 96z" />
<glyph unicode="&#xe65a;" d="M512 960c-282.77 0-512-229.23-512-512s229.23-512 512-512 512 229.23 512 512-229.23 512-512 512zM320 512c-35.346 0-64 42.98-64 96s28.654 96 64 96 64-42.98 64-96-28.654-96-64-96zM512 128c-70.692 0-128 57.308-128 128s57.308 128 128 128c70.692 0 128-57.308 128-128s-57.308-128-128-128zM704 512c-35.346 0-64 42.98-64 96s28.654 96 64 96 64-42.98 64-96-28.654-96-64-96z" />
<glyph unicode="&#xe65b;" d="M512-64c282.77 0 512 229.23 512 512s-229.23 512-512 512-512-229.23-512-512 229.23-512 512-512zM512 864c229.75 0 416-186.25 416-416s-186.25-416-416-416-416 186.25-416 416 186.25 416 416 416zM256 640c0 35.346 28.654 64 64 64s64-28.654 64-64c0-35.346-28.654-64-64-64-35.346 0-64 28.654-64 64zM640 640c0 35.346 28.654 64 64 64s64-28.654 64-64c0-35.346-28.654-64-64-64-35.346 0-64 28.654-64 64zM726.106 320h64.864c9.246-72.506-32.452-144.53-103.958-170.56-82.904-30.176-174.9 12.716-205.080 95.616-18.108 49.744-73.306 75.482-123.048 57.372-45.562-16.588-70.956-64.298-60.988-110.424h-64.86c-9.242 72.508 32.45 144.528 103.956 170.56 82.904 30.178 174.902-12.716 205.082-95.614 18.104-49.748 73.306-75.482 123.044-57.372 45.562 16.584 70.956 64.298 60.988 110.422z" />
<glyph unicode="&#xe65c;" d="M512 960c-282.77 0-512-229.23-512-512s229.226-512 512-512c282.77 0 512 229.23 512 512s-229.23 512-512 512zM704 704c35.346 0 64-28.654 64-64s-28.654-64-64-64-64 28.654-64 64c0 35.346 28.654 64 64 64zM320 704c35.346 0 64-28.654 64-64s-28.654-64-64-64-64 28.654-64 64c0 35.346 28.654 64 64 64zM687.010 149.44c-82.902-30.18-174.9 12.712-205.080 95.614-18.108 49.742-73.306 75.478-123.048 57.372-45.562-16.588-70.958-64.296-60.988-110.424h-64.86c-9.244 72.508 32.45 144.532 103.956 170.56 82.904 30.18 174.902-12.712 205.082-95.614 18.108-49.742 73.306-75.476 123.046-57.37 45.562 16.584 70.958 64.294 60.988 110.422h64.864c9.24-72.506-32.454-144.532-103.96-170.56z" />
<glyph unicode="&#xe65d;" d="M512-64c282.77 0 512 229.23 512 512s-229.23 512-512 512-512-229.23-512-512 229.23-512 512-512zM512 864c229.75 0 416-186.25 416-416s-186.25-416-416-416-416 186.25-416 416 186.25 416 416 416zM256 640c0-35.346 28.654-64 64-64s64 28.654 64 64-28.654 64-64 64-64-28.654-64-64zM640 640c0-35.346 28.654-64 64-64s64 28.654 64 64-28.654 64-64 64-64-28.654-64-64zM384 256h256v-64h-256v64z" />
<glyph unicode="&#xe65e;" d="M512 960c-282.77 0-512-229.23-512-512s229.226-512 512-512c282.77 0 512 229.23 512 512s-229.23 512-512 512zM640 192h-256v64h256v-64zM704 704c35.346 0 64-28.654 64-64s-28.654-64-64-64-64 28.654-64 64c0 35.346 28.654 64 64 64zM320 704c35.346 0 64-28.654 64-64s-28.654-64-64-64-64 28.654-64 64c0 35.346 28.654 64 64 64z" />
<glyph unicode="&#xe65f;" d="M512-64c282.77 0 512 229.23 512 512s-229.23 512-512 512-512-229.23-512-512 229.23-512 512-512zM512 864c229.75 0 416-186.25 416-416s-186.25-416-416-416-416 186.25-416 416 186.25 416 416 416zM745.74 358.38l22.488-76.776-437.008-128.002-22.488 76.776zM256 640c0 35.346 28.654 64 64 64s64-28.654 64-64c0-35.346-28.654-64-64-64-35.346 0-64 28.654-64 64zM640 640c0 35.346 28.654 64 64 64s64-28.654 64-64c0-35.346-28.654-64-64-64-35.346 0-64 28.654-64 64z" />
<glyph unicode="&#xe660;" d="M512 960c-282.77 0-512-229.23-512-512s229.23-512 512-512 512 229.23 512 512-229.23 512-512 512zM704 704c35.346 0 64-28.654 64-64s-28.654-64-64-64-64 28.654-64 64 28.654 64 64 64zM256 640c0 35.346 28.654 64 64 64s64-28.654 64-64-28.654-64-64-64-64 28.654-64 64zM331.244 153.614l-22.488 76.774 437 128 22.488-76.774-437-128z" />
<glyph unicode="&#xe661;" d="M320 832v-347.808c-80.91 22.456-100.592 33.808-186 33.808-73.888 0-134-60.112-134-134 0-73.886 60.112-134 134-134 103.972 0 151.95-38.722 205.71-115.090 1.596-2.268 3.162-4.578 4.71-6.91h-88.42v-192h640v192h-57.004c4.302 63.662 22.192 81.12 44.084 102.446 16.89 16.452 37.912 36.928 53.276 74.030 16.13 38.954 23.644 89.646 23.644 159.524v64.98c0 61.938-51.268 112.326-114.286 112.326-10.47 0-20.876-1.424-30.9-4.19-20.996 19.71-49.002 30.964-78.814 30.964-10.468 0-20.876-1.424-30.898-4.19-20.998 19.71-49.006 30.964-78.816 30.964-18.036 0-35.1-4.142-50.286-11.488v148.634c0 70.694-57.306 128-128 128-70.692 0-128-57.306-128-128zM832 32c0-17.672-14.326-32-32-32s-32 14.328-32 32 14.326 32 32 32 32-14.328 32-32zM512 826v-256h64v6.532c0 26.646 22.558 48.326 50.286 48.326 17.37 0 33.29-8.468 42.586-22.654l16.244-24.788 25.958 14.298c7.562 4.166 16.182 6.368 24.926 6.368 17.37 0 33.288-8.468 42.582-22.652l16.244-24.79 25.96 14.298c7.562 4.166 16.182 6.368 24.928 6.368 27.726 0 50.286-21.68 50.286-48.326v-64.98c0-126.562-38.206-152.088-65.95-179.112-28.32-27.588-59.984-58.49-66.728-150.888h-334.374c-8.264 15.756-17.264 30.7-27.090 44.658-67.858 96.392-139.546 147.342-267.858 147.342-31.982 0-58 30.020-58 62s26.018 60 58 60c85.66 0 105.412-12.414 186-36.96 22.742-6.124 45.27-11.922 63.334-15.876l0.666 436.836c0 35.29 28.71 64 64 64s64-28.71 64-64z" />
<glyph unicode="&#xe662;" d="M896 576h-347.808c22.456 80.91 33.808 100.592 33.808 186 0 73.888-60.112 134-134 134-73.886 0-134-60.112-134-134 0-103.972-38.722-151.95-115.090-205.71-2.268-1.596-4.578-3.162-6.91-4.71v88.42h-192v-640h192v57.004c63.662-4.302 81.12-22.192 102.446-44.084 16.452-16.89 36.928-37.912 74.030-53.276 38.954-16.13 89.646-23.644 159.524-23.644h64.98c61.938 0 112.326 51.268 112.326 114.286 0 10.47-1.424 20.876-4.19 30.9 19.71 20.996 30.964 49.002 30.964 78.814 0 10.468-1.424 20.876-4.19 30.898 19.71 20.998 30.964 49.006 30.964 78.816 0 18.036-4.142 35.1-11.488 50.286h148.634c70.694 0 128 57.306 128 128 0 70.692-57.306 128-128 128zM96 64c-17.672 0-32 14.326-32 32s14.328 32 32 32 32-14.326 32-32-14.328-32-32-32zM890 384h-256v-64h6.532c26.646 0 48.326-22.558 48.326-50.286 0-17.37-8.468-33.29-22.654-42.586l-24.788-16.244 14.298-25.958c4.166-7.562 6.368-16.182 6.368-24.926 0-17.37-8.468-33.288-22.652-42.582l-24.79-16.244 14.298-25.96c4.166-7.562 6.368-16.182 6.368-24.928 0-27.726-21.68-50.286-48.326-50.286h-64.98c-126.562 0-152.088 38.206-179.112 65.95-27.588 28.32-58.49 59.984-150.888 66.728v334.374c15.756 8.264 30.7 17.264 44.658 27.090 96.392 67.858 147.342 139.546 147.342 267.858 0 31.982 30.020 58 62 58s60-26.018 60-58c0-85.66-12.414-105.412-36.96-186-6.124-22.742-11.922-45.27-15.876-63.334l436.836-0.666c35.29 0 64-28.71 64-64s-28.71-64-64-64z" />
<glyph unicode="&#xe663;" d="M320 64v347.808c-80.91-22.456-100.592-33.808-186-33.808-73.888 0-134 60.112-134 134 0 73.886 60.112 134 134 134 103.972 0 151.95 38.722 205.71 115.090 1.596 2.268 3.162 4.578 4.71 6.91h-88.42v192h640v-192h-57.004c4.302-63.662 22.192-81.12 44.084-102.446 16.89-16.452 37.912-36.928 53.276-74.030 16.13-38.954 23.644-89.646 23.644-159.524v-64.98c0-61.938-51.268-112.326-114.286-112.326-10.47 0-20.876 1.424-30.9 4.19-20.996-19.71-49.002-30.964-78.814-30.964-10.468 0-20.876 1.424-30.898 4.19-20.998-19.71-49.006-30.964-78.816-30.964-18.036 0-35.1 4.142-50.286 11.488v-148.634c0-70.694-57.306-128-128-128-70.692 0-128 57.306-128 128zM832 864c0 17.672-14.326 32-32 32s-32-14.328-32-32 14.326-32 32-32 32 14.328 32 32zM512 70v256h64v-6.532c0-26.646 22.558-48.326 50.286-48.326 17.37 0 33.29 8.468 42.586 22.654l16.244 24.788 25.958-14.298c7.562-4.166 16.182-6.368 24.926-6.368 17.37 0 33.288 8.468 42.582 22.652l16.244 24.79 25.96-14.298c7.562-4.166 16.182-6.368 24.928-6.368 27.726 0 50.286 21.68 50.286 48.326v64.98c0 126.562-38.206 152.088-65.95 179.112-28.32 27.588-59.984 58.49-66.728 150.888h-334.374c-8.264-15.756-17.264-30.7-27.090-44.658-67.858-96.392-139.546-147.342-267.858-147.342-31.982 0-58-30.020-58-62s26.018-60 58-60c85.66 0 105.412 12.414 186 36.96 22.742 6.124 45.27 11.922 63.334 15.876l0.666-436.836c0-35.29 28.71-64 64-64s64 28.71 64 64z" />
<glyph unicode="&#xe664;" d="M128 576h347.808c-22.456 80.91-33.808 100.592-33.808 186 0 73.888 60.112 134 134 134 73.886 0 134-60.112 134-134 0-103.972 38.722-151.95 115.090-205.71 2.268-1.596 4.578-3.162 6.91-4.71v88.42h192v-640h-192v57.004c-63.662-4.302-81.12-22.192-102.446-44.084-16.452-16.89-36.928-37.912-74.030-53.276-38.954-16.13-89.646-23.644-159.524-23.644h-64.98c-61.938 0-112.326 51.268-112.326 114.286 0 10.47 1.424 20.876 4.19 30.9-19.71 20.996-30.964 49.002-30.964 78.814 0 10.468 1.424 20.876 4.19 30.898-19.71 20.998-30.964 49.006-30.964 78.816 0 18.036 4.142 35.1 11.488 50.286h-148.634c-70.694 0-128 57.306-128 128 0 70.692 57.306 128 128 128zM928 64c17.672 0 32 14.326 32 32s-14.328 32-32 32-32-14.326-32-32 14.328-32 32-32zM134 384h256v-64h-6.532c-26.646 0-48.326-22.558-48.326-50.286 0-17.37 8.468-33.29 22.654-42.586l24.788-16.244-14.298-25.958c-4.166-7.562-6.368-16.182-6.368-24.926 0-17.37 8.468-33.288 22.652-42.582l24.79-16.244-14.298-25.96c-4.166-7.562-6.368-16.182-6.368-24.928 0-27.726 21.68-50.286 48.326-50.286h64.98c126.562 0 152.088 38.206 179.112 65.95 27.588 28.32 58.49 59.984 150.888 66.728v334.374c-15.756 8.264-30.7 17.264-44.658 27.090-96.392 67.858-147.342 139.546-147.342 267.858 0 31.982-30.020 58-62 58s-60-26.018-60-58c0-85.66 12.414-105.412 36.96-186 6.124-22.742 11.922-45.27 15.876-63.334l-436.836-0.666c-35.29 0-64-28.71-64-64s28.71-64 64-64z" />
<glyph unicode="&#xe665;" d="M512 801.276l-344.834-737.276h689.668l-344.834 737.276zM512 960v0c22.070 0 44.14-14.882 60.884-44.648l437.072-871.112c33.49-59.532 5-108.24-63.302-108.24h-869.308c-68.304 0-96.79 48.708-63.304 108.24l437.074 871.112c16.744 29.766 38.814 44.648 60.884 44.648zM448 192c0 35.346 28.654 64 64 64s64-28.654 64-64c0-35.346-28.654-64-64-64-35.346 0-64 28.654-64 64zM512 576c35.346 0 64-28.654 64-64l-20-192h-88l-20 192c0 35.346 28.654 64 64 64z" />
<glyph unicode="&#xe666;" d="M512 864c-111.118 0-215.584-43.272-294.156-121.844s-121.844-183.038-121.844-294.156c0-111.118 43.272-215.584 121.844-294.156 78.572-78.572 183.038-121.844 294.156-121.844 111.118 0 215.584 43.272 294.156 121.844 78.572 78.572 121.844 183.038 121.844 294.156 0 111.118-43.272 215.584-121.844 294.156-78.572 78.572-183.038 121.844-294.156 121.844zM512 960v0c282.77 0 512-229.23 512-512s-229.23-512-512-512c-282.77 0-512 229.23-512 512 0 282.77 229.23 512 512 512zM448 256h128v-128h-128zM448 768h128v-384h-128z" />
<glyph unicode="&#xe667;" d="M448 256h128v-128h-128zM704 704c35.346 0 64-28.654 64-64v-192l-192-128h-128v64l192 128v64h-320v128h384zM512 864c-111.118 0-215.584-43.272-294.156-121.844s-121.844-183.038-121.844-294.156c0-111.118 43.272-215.584 121.844-294.156 78.572-78.572 183.038-121.844 294.156-121.844 111.118 0 215.584 43.272 294.156 121.844 78.572 78.572 121.844 183.038 121.844 294.156 0 111.118-43.272 215.584-121.844 294.156-78.572 78.572-183.038 121.844-294.156 121.844zM512 960v0c282.77 0 512-229.23 512-512s-229.23-512-512-512c-282.77 0-512 229.23-512 512 0 282.77 229.23 512 512 512z" />
<glyph unicode="&#xe668;" d="M512 960c-282.77 0-512-229.23-512-512s229.23-512 512-512 512 229.23 512 512-229.23 512-512 512zM512 32c-229.75 0-416 186.25-416 416s186.25 416 416 416 416-186.25 416-416-186.25-416-416-416zM448 704h128v-128h-128zM640 192h-256v64h64v192h-64v64h192v-256h64z" />
<glyph unicode="&#xe669;" d="M512 960c-282.77 0-512-229.23-512-512s229.23-512 512-512 512 229.23 512 512-229.23 512-512 512zM448 768h128v-128h-128v128zM640 128h-256v64h64v256h-64v64h192v-320h64v-64z" />
<glyph unicode="&#xe66a;" d="M0 448c0-282.77 229.23-512 512-512 282.772 0 512 229.23 512 512s-229.228 512-512 512c-282.77 0-512-229.23-512-512zM896 448c0-73.236-20.512-141.68-56.088-199.912l-527.822 527.824c58.23 35.578 126.674 56.088 199.91 56.088 212.076 0 384-171.922 384-384zM128 448c0 73.236 20.512 141.678 56.090 199.912l527.822-527.824c-58.234-35.578-126.676-56.088-199.912-56.088-212.076 0-384 171.922-384 384z" />
<glyph unicode="&#xe66b;" d="M512 960c-282.77 0-512-229.23-512-512s229.23-512 512-512 512 229.23 512 512-229.23 512-512 512zM768 613.49l-165.488-165.49 165.488-165.488v-90.512h-90.512l-165.488 165.488-165.49-165.488h-90.51v90.512l165.49 165.488-165.49 165.49v90.51h90.51l165.49-165.49 165.488 165.49h90.512v-90.51z" />
<glyph unicode="&#xe66c;" d="M512 960c-282.77 0-512-229.23-512-512s229.23-512 512-512 512 229.23 512 512-229.23 512-512 512zM416 128l-212 276 94 98 118-150 370 302 46-46-416-480z" />
<glyph unicode="&#xe66d;" d="M1024 224l-288 736h-448l-288-288v-448l288-288h448l288 288v448l-288 288zM576 128h-128v128h128v-128zM576 384h-128v384h128v-384z" />
<glyph unicode="&#xe66e;" d="M1014.662 137.34c-0.004 0.004-0.008 0.008-0.012 0.010l-310.644 310.65 310.644 310.65c0.004 0.004 0.008 0.006 0.012 0.010 3.344 3.346 5.762 7.254 7.312 11.416 4.246 11.376 1.824 24.682-7.324 33.83l-146.746 146.746c-9.148 9.146-22.45 11.566-33.828 7.32-4.16-1.55-8.070-3.968-11.418-7.31 0-0.004-0.004-0.006-0.008-0.010l-310.648-310.652-310.648 310.65c-0.004 0.004-0.006 0.006-0.010 0.010-3.346 3.342-7.254 5.76-11.414 7.31-11.38 4.248-24.682 1.826-33.83-7.32l-146.748-146.748c-9.148-9.148-11.568-22.452-7.322-33.828 1.552-4.16 3.97-8.072 7.312-11.416 0.004-0.002 0.006-0.006 0.010-0.010l310.65-310.648-310.65-310.652c-0.002-0.004-0.006-0.006-0.008-0.010-3.342-3.346-5.76-7.254-7.314-11.414-4.248-11.376-1.826-24.682 7.322-33.83l146.748-146.746c9.15-9.148 22.452-11.568 33.83-7.322 4.16 1.552 8.070 3.97 11.416 7.312 0.002 0.004 0.006 0.006 0.010 0.010l310.648 310.65 310.648-310.65c0.004-0.002 0.008-0.006 0.012-0.008 3.348-3.344 7.254-5.762 11.414-7.314 11.378-4.246 24.684-1.826 33.828 7.322l146.746 146.748c9.148 9.148 11.57 22.454 7.324 33.83-1.552 4.16-3.97 8.068-7.314 11.414z" />
<glyph unicode="&#xe66f;" d="M864 832l-480-480-224 224-160-160 384-384 640 640z" />
<glyph unicode="&#xe670;" d="M397.434 42.304l-397.868 391.6 197.378 194.27 200.49-197.332 429.62 422.852 197.378-194.27-626.998-617.12zM107.912 433.904l289.524-284.962 518.656 510.482-89.036 87.632-429.62-422.852-200.49 197.334-89.034-87.634z" />
<glyph unicode="&#xe671;" d="M128 704h128v-192h64v384c0 35.2-28.8 64-64 64h-128c-35.2 0-64-28.8-64-64v-384h64v192zM128 896h128v-128h-128v128zM960 896v64h-192c-35.202 0-64-28.8-64-64v-320c0-35.2 28.798-64 64-64h192v64h-192v320h192zM640 800v96c0 35.2-28.8 64-64 64h-192v-448h192c35.2 0 64 28.8 64 64v96c0 35.2-8.8 64-44 64 35.2 0 44 28.8 44 64zM576 576h-128v128h128v-128zM576 768h-128v128h128v-128zM832 384l-416-448-224 288 82 70 142-148 352 302z" />
<glyph unicode="&#xe672;" d="M0 544v-192c0-17.672 14.328-32 32-32h960c17.672 0 32 14.328 32 32v192c0 17.672-14.328 32-32 32h-960c-17.672 0-32-14.328-32-32z" />
<glyph unicode="&#xe673;" d="M992 576h-352v352c0 17.672-14.328 32-32 32h-192c-17.672 0-32-14.328-32-32v-352h-352c-17.672 0-32-14.328-32-32v-192c0-17.672 14.328-32 32-32h352v-352c0-17.672 14.328-32 32-32h192c17.672 0 32 14.328 32 32v352h352c17.672 0 32 14.328 32 32v192c0 17.672-14.328 32-32 32z" />
<glyph unicode="&#xe674;" d="M384 448h-320v128h320v128l192-192-192-192zM1024 960v-832l-384-192v192h-384v256h64v-192h320v576l256 128h-576v-256h-64v320z" />
<glyph unicode="&#xe675;" d="M768 320v128h-320v128h320v128l192-192zM704 384v-256h-320v-192l-384 192v832h704v-320h-64v256h-512l256-128v-576h256v192z" />
<glyph unicode="&#xe676;" d="M512 960c-282.77 0-512-229.23-512-512s229.23-512 512-512 512 229.23 512 512-229.23 512-512 512zM512 32c-229.75 0-416 186.25-416 416s186.25 416 416 416 416-186.25 416-416-186.25-416-416-416zM384 672l384-224-384-224z" />
<glyph unicode="&#xe677;" d="M512 960c-282.77 0-512-229.23-512-512s229.23-512 512-512 512 229.23 512 512-229.23 512-512 512zM512 32c-229.75 0-416 186.25-416 416s186.25 416 416 416 416-186.25 416-416-186.25-416-416-416zM320 640h128v-384h-128zM576 640h128v-384h-128z" />
<glyph unicode="&#xe678;" d="M512 960c-282.77 0-512-229.23-512-512s229.23-512 512-512 512 229.23 512 512-229.23 512-512 512zM512 32c-229.75 0-416 186.25-416 416s186.25 416 416 416 416-186.25 416-416-186.25-416-416-416zM320 640h384v-384h-384z" />
<glyph unicode="&#xe679;" d="M512-64c282.77 0 512 229.23 512 512s-229.23 512-512 512-512-229.23-512-512 229.23-512 512-512zM512 864c229.75 0 416-186.25 416-416s-186.25-416-416-416-416 186.25-416 416 186.25 416 416 416zM704 288l-224 160 224 160zM448 288l-224 160 224 160z" />
<glyph unicode="&#xe67a;" d="M512 960c-282.77 0-512-229.23-512-512s229.23-512 512-512 512 229.23 512 512-229.23 512-512 512zM512 32c-229.75 0-416 186.25-416 416s186.25 416 416 416 416-186.25 416-416-186.25-416-416-416zM320 608l224-160-224-160zM576 608l224-160-224-160z" />
<glyph unicode="&#xe67b;" d="M192 832l640-384-640-384z" />
<glyph unicode="&#xe67c;" d="M128 832h320v-768h-320zM576 832h320v-768h-320z" />
<glyph unicode="&#xe67d;" d="M128 832h768v-768h-768z" />
<glyph unicode="&#xe67e;" d="M576 800v-320l320 320v-704l-320 320v-320l-352 352z" />
<glyph unicode="&#xe67f;" d="M512 96v320l-320-320v704l320-320v320l352-352z" />
<glyph unicode="&#xe680;" d="M128 64v768h128v-352l320 320v-320l320 320v-704l-320 320v-320l-320 320v-352z" />
<glyph unicode="&#xe681;" d="M896 832v-768h-128v352l-320-320v320l-320-320v704l320-320v320l320-320v352z" />
<glyph unicode="&#xe682;" d="M256 64v768h128v-352l320 320v-704l-320 320v-352z" />
<glyph unicode="&#xe683;" d="M768 832v-768h-128v352l-320-320v704l320-320v352z" />
<glyph unicode="&#xe684;" d="M0 192h1024v-128h-1024zM512 832l512-512h-1024z" />
<glyph unicode="&#xe685;" d="M890.040 37.96c-12.286 0-24.568 4.686-33.942 14.058-18.744 18.746-18.744 49.136 0 67.882 87.638 87.642 135.904 204.16 135.904 328.1 0 123.938-48.266 240.458-135.904 328.098-18.744 18.746-18.744 49.138 0 67.882 18.744 18.744 49.138 18.744 67.882 0 105.77-105.772 164.022-246.4 164.022-395.98 0-149.582-58.252-290.208-164.022-395.98-9.372-9.374-21.656-14.060-33.94-14.060zM719.53 128.47c-12.286 0-24.568 4.686-33.942 14.058-18.744 18.744-18.744 49.136 0 67.882 131.006 131.006 131.006 344.17 0 475.176-18.744 18.746-18.744 49.138 0 67.882 18.744 18.742 49.138 18.744 67.882 0 81.594-81.592 126.53-190.076 126.53-305.468 0-115.39-44.936-223.876-126.53-305.47-9.372-9.374-21.656-14.060-33.94-14.060zM549.020 218.98c-12.286 0-24.568 4.686-33.942 14.058-18.746 18.746-18.746 49.136 0 67.882 81.1 81.1 81.1 213.058 0 294.156-18.746 18.746-18.746 49.138 0 67.882 18.746 18.744 49.136 18.744 67.882 0 118.53-118.53 118.53-311.392 0-429.922-9.372-9.37-21.656-14.056-33.94-14.056zM401.332 881.332c25.668 25.668 46.668 16.968 46.668-19.332v-828c0-36.3-21-44.998-46.668-19.33l-241.332 241.33h-160v384h160l241.332 241.332z" horiz-adv-x="1088" />
<glyph unicode="&#xe686;" d="M719.53 128.47c-12.286 0-24.568 4.686-33.942 14.058-18.744 18.744-18.744 49.136 0 67.882 131.006 131.006 131.006 344.17 0 475.176-18.744 18.746-18.744 49.138 0 67.882 18.744 18.742 49.138 18.744 67.882 0 81.594-81.592 126.53-190.076 126.53-305.468 0-115.39-44.936-223.876-126.53-305.47-9.372-9.374-21.656-14.060-33.94-14.060zM549.020 218.98c-12.286 0-24.568 4.686-33.942 14.058-18.746 18.746-18.746 49.136 0 67.882 81.1 81.1 81.1 213.058 0 294.156-18.746 18.746-18.746 49.138 0 67.882 18.746 18.744 49.136 18.744 67.882 0 118.53-118.53 118.53-311.392 0-429.922-9.372-9.37-21.656-14.056-33.94-14.056zM401.332 881.332c25.668 25.668 46.668 16.968 46.668-19.332v-828c0-36.3-21-44.998-46.668-19.33l-241.332 241.33h-160v384h160l241.332 241.332z" />
<glyph unicode="&#xe687;" d="M549.020 218.98c-12.286 0-24.568 4.686-33.942 14.058-18.746 18.746-18.746 49.136 0 67.882 81.1 81.1 81.1 213.058 0 294.156-18.746 18.746-18.746 49.138 0 67.882 18.746 18.744 49.136 18.744 67.882 0 118.53-118.53 118.53-311.392 0-429.922-9.372-9.37-21.656-14.056-33.94-14.056zM401.332 881.332c25.668 25.668 46.668 16.968 46.668-19.332v-828c0-36.3-21-44.998-46.668-19.33l-241.332 241.33h-160v384h160l241.332 241.332z" />
<glyph unicode="&#xe688;" d="M401.332 881.332c25.668 25.668 46.668 16.968 46.668-19.332v-828c0-36.3-21-44.998-46.668-19.33l-241.332 241.33h-160v384h160l241.332 241.332z" />
<glyph unicode="&#xe689;" d="M401.332 881.332c25.668 25.668 46.668 16.968 46.668-19.332v-828c0-36.3-21-44.998-46.668-19.33l-241.332 241.33h-160v384h160l241.332 241.332zM960 340.852v-84.852h-84.852l-107.148 107.148-107.148-107.148h-84.852v84.852l107.148 107.148-107.148 107.148v84.852h84.852l107.148-107.148 107.148 107.148h84.852v-84.852l-107.148-107.148z" />
<glyph unicode="&#xe68a;" d="M428.164 896.082c11.976 0 19.836-11.878 19.838-34.082v-828c0-22.206-7.856-34.082-19.836-34.082-7.604 0-16.868 4.788-26.834 14.752l-241.332 241.33h-160v384h160l241.332 241.332c9.966 9.966 19.228 14.75 26.832 14.75zM1024 384h-192v-192h-128v192h-192v128h192v192h128v-192h192z" />
<glyph unicode="&#xe68b;" d="M428.164 896.082c11.976 0 19.836-11.878 19.838-34.082v-828c0-22.206-7.856-34.082-19.836-34.082-7.604 0-16.868 4.788-26.834 14.752l-241.332 241.33h-160v384h160l241.332 241.332c9.966 9.966 19.228 14.75 26.832 14.75zM512 512h512v-128h-512z" />
<glyph unicode="&#xe68c;" d="M128 640h640v-192l256 256-256 256v-192h-768v-384h128zM896 256h-640v192l-256-256 256-256v192h768v384h-128z" />
<glyph unicode="&#xe68d;" d="M874.022 810.020c-92.652 92.656-220.636 149.98-362.022 149.98-219.488 0-406.69-138.128-479.498-332.188l119.876-44.954c54.604 145.546 195.006 249.142 359.622 249.142 106.040 0 202.020-43 271.506-112.494l-143.506-143.506h384v384l-149.978-149.98zM512 64c-106.040 0-202.026 42.992-271.512 112.488l143.512 143.512h-384v-384l149.994 149.994c92.646-92.662 220.618-149.994 362.006-149.994 219.49 0 406.692 138.128 479.5 332.188l-119.876 44.954c-54.604-145.546-195.006-249.142-359.624-249.142z" />
<glyph unicode="&#xe68e;" d="M320 320v192h192l-256 256-256-256h192v-320h384l-128 128zM832 384v320h-384l128-128h128v-192h-192l256-256 256 256z" />
<glyph unicode="&#xe68f;" d="M1024 704l-256 256v-192c-130.772 0-230.752-31.208-305.65-95.408-5.25-4.5-10.284-9.1-15.162-13.774 27.52-38.164 48.716-77.516 67.772-115.090 48.322 58.402 118.054 96.272 253.040 96.272v-384c-216.446 0-265.126 97.36-326.756 220.622-34.306 68.612-69.78 139.56-135.592 195.97-74.9 64.2-174.88 95.408-305.652 95.408v-128c216.446 0 265.126-97.36 326.756-220.622 34.306-68.612 69.78-139.56 135.592-195.97 74.9-64.2 174.882-95.408 305.652-95.408v-192l256 256-256 256 256 256zM0 256v-128c130.772 0 230.75 31.208 305.65 95.408 5.25 4.498 10.284 9.1 15.162 13.776-27.52 38.162-48.718 77.516-67.772 115.090-48.32-58.402-118.052-96.274-253.040-96.274z" />
<glyph unicode="&#xe690;" d="M0 192l256 256 512-512 256 256-512 512 255.998 256h-767.998z" />
<glyph unicode="&#xe691;" d="M512.002 960l-512.002-512h320v-511.998l384-0.002v512h320z" />
<glyph unicode="&#xe692;" d="M256 960l256.002-256-512.002-512 256-256 512 512 256-255.998v767.998z" />
<glyph unicode="&#xe693;" d="M1024 448l-512 512v-320h-511.998l-0.002-384h512v-320z" />
<glyph unicode="&#xe694;" d="M1024 704l-256-256-512 512-256-256 512.002-512-256-256h767.998z" />
<glyph unicode="&#xe695;" d="M512-64l512 512h-320v511.998l-384 0.002v-512h-320z" />
<glyph unicode="&#xe696;" d="M768-64l-256 256 512 512-256 256-512-512.002-256 256v-767.998z" />
<glyph unicode="&#xe697;" d="M0 448l512-512v320h511.998l0.002 384h-512v320z" />
<glyph unicode="&#xe698;" d="M128 384c0-35.348 28.654-64 64-64s64 28.652 64 64v229.492l530.746-530.748c24.992-24.992 65.516-24.992 90.508 0 12.498 12.498 18.746 28.878 18.746 45.256s-6.248 32.758-18.746 45.254l-530.746 530.746h229.492c35.346 0 64 28.654 64 64s-28.654 64-64 64h-448v-448z" />
<glyph unicode="&#xe699;" d="M877.254 557.254l-320 320c-24.992 24.994-65.514 24.994-90.508 0l-320-320c-24.994-24.994-24.994-65.516 0-90.51 24.994-24.996 65.516-24.996 90.51 0l210.744 210.746v-613.49c0-35.346 28.654-64 64-64s64 28.654 64 64v613.49l210.746-210.746c12.496-12.496 28.876-18.744 45.254-18.744s32.758 6.248 45.254 18.746c24.994 24.994 24.994 65.514 0 90.508z" />
<glyph unicode="&#xe69a;" d="M832.020 832c-0.012 0-0.028 0-0.040 0h-383.98c-35.346 0-64-28.654-64-64s28.654-64 64-64h229.492l-530.746-530.746c-24.994-24.992-24.994-65.516 0-90.508 12.496-12.498 28.876-18.746 45.254-18.746s32.758 6.248 45.254 18.746l530.746 530.746v-229.492c0-35.346 28.654-64 64-64s64 28.654 64 64v448h-63.98z" />
<glyph unicode="&#xe69b;" d="M621.254 82.746l320 320c24.994 24.992 24.994 65.516 0 90.51l-320 320c-24.994 24.992-65.516 24.992-90.51 0-24.994-24.994-24.994-65.516 0-90.51l210.746-210.746h-613.49c-35.346 0-64-28.654-64-64s28.654-64 64-64h613.49l-210.746-210.746c-12.496-12.496-18.744-28.876-18.744-45.254s6.248-32.758 18.744-45.254c24.994-24.994 65.516-24.994 90.51 0z" />
<glyph unicode="&#xe69c;" d="M896 512c0 35.348-28.652 64-64 64-35.346 0-64-28.652-64-64v-229.492l-530.746 530.748c-24.992 24.992-65.516 24.992-90.508 0-12.498-12.498-18.746-28.878-18.746-45.256s6.248-32.758 18.746-45.254l530.746-530.746h-229.492c-35.346 0-64-28.654-64-64s28.654-64 64-64h448v448z" />
<glyph unicode="&#xe69d;" d="M146.746 338.746l320-320c24.992-24.994 65.516-24.994 90.51 0l320 320c24.992 24.994 24.992 65.516 0 90.51-24.994 24.994-65.516 24.994-90.51 0l-210.746-210.746v613.49c0 35.346-28.654 64-64 64s-64-28.654-64-64v-613.49l-210.746 210.746c-12.496 12.496-28.876 18.744-45.254 18.744s-32.758-6.248-45.254-18.744c-24.994-24.994-24.994-65.516 0-90.51z" />
<glyph unicode="&#xe69e;" d="M576 64c35.348 0 64 28.652 64 64 0 35.346-28.652 64-64 64h-229.492l530.748 530.746c24.992 24.992 24.992 65.516 0 90.508-12.498 12.498-28.878 18.746-45.256 18.746s-32.758-6.248-45.254-18.746l-530.746-530.746v229.492c0 35.346-28.654 64-64 64s-64-28.654-64-64v-448h448z" />
<glyph unicode="&#xe69f;" d="M402.746 813.254l-320-320c-24.994-24.992-24.994-65.516 0-90.508l320-320c24.994-24.992 65.516-24.992 90.51 0 24.996 24.992 24.996 65.516 0 90.508l-210.748 210.746h613.492c35.346 0 64 28.652 64 64 0 35.346-28.654 64-64 64h-613.492l210.746 210.746c12.496 12.496 18.746 28.876 18.746 45.254s-6.248 32.758-18.744 45.254c-24.996 24.994-65.516 24.994-90.51 0z" />
<glyph unicode="&#xe6a0;" d="M512 960c282.77 0 512-229.23 512-512s-229.23-512-512-512-512 229.23-512 512 229.23 512 512 512zM512 32c229.75 0 416 186.25 416 416s-186.25 416-416 416-416-186.25-416-416 186.25-416 416-416zM640 704c35.346 0 64-28.654 64-64s-28.654-64-64-64h-165.488l274.742-274.744c24.994-24.994 24.994-65.518 0-90.512-12.496-12.496-28.876-18.744-45.254-18.744s-32.758 6.248-45.254 18.744l-274.746 274.746v-165.49c0-35.346-28.654-64-64-64s-64 28.654-64 64v384h384z" />
<glyph unicode="&#xe6a1;" d="M1024 448c0-282.77-229.23-512-512-512s-512 229.23-512 512 229.23 512 512 512 512-229.23 512-512zM96 448c0-229.75 186.25-416 416-416s416 186.25 416 416-186.25 416-416 416-416-186.25-416-416zM557.254 749.256l256-256.002c24.994-24.992 24.994-65.514 0-90.508s-65.516-24.994-90.51 0l-146.744 146.744v-357.49c0-35.346-28.654-64-64-64s-64 28.654-64 64v357.49l-146.744-146.746c-24.994-24.994-65.518-24.994-90.512 0-12.496 12.498-18.744 28.878-18.744 45.256s6.248 32.758 18.744 45.254l256 256.002c24.994 24.992 65.518 24.992 90.51 0z" />
<glyph unicode="&#xe6a2;" d="M512 960c-282.77 0-512-229.23-512-512s229.23-512 512-512 512 229.23 512 512-229.23 512-512 512zM512 32c-229.75 0-416 186.25-416 416s186.25 416 416 416 416-186.25 416-416-186.25-416-416-416zM384 704c-35.346 0-64-28.654-64-64s28.654-64 64-64h165.488l-274.742-274.744c-24.994-24.994-24.994-65.518 0-90.512 12.496-12.496 28.876-18.744 45.254-18.744s32.758 6.248 45.254 18.744l274.746 274.746v-165.49c0-35.346 28.654-64 64-64s64 28.654 64 64v384h-384z" />
<glyph unicode="&#xe6a3;" d="M512 960c-282.77 0-512-229.23-512-512s229.23-512 512-512 512 229.23 512 512-229.23 512-512 512zM512 32c-229.75 0-416 186.25-416 416s186.25 416 416 416 416-186.25 416-416-186.25-416-416-416zM813.256 493.254l-256.002 256c-24.992 24.994-65.514 24.994-90.508 0s-24.994-65.516 0-90.51l146.744-146.744h-357.49c-35.346 0-64-28.654-64-64s28.654-64 64-64h357.49l-146.746-146.744c-24.994-24.994-24.994-65.518 0-90.512 12.498-12.496 28.878-18.744 45.256-18.744s32.758 6.248 45.254 18.744l256.002 256c24.992 24.994 24.992 65.518 0 90.51z" />
<glyph unicode="&#xe6a4;" d="M512-64c-282.77 0-512 229.23-512 512s229.23 512 512 512 512-229.23 512-512-229.23-512-512-512zM512 864c-229.75 0-416-186.25-416-416s186.25-416 416-416 416 186.25 416 416-186.25 416-416 416zM384 192c-35.346 0-64 28.654-64 64s28.654 64 64 64h165.488l-274.742 274.744c-24.994 24.994-24.994 65.518 0 90.512 12.496 12.496 28.876 18.744 45.254 18.744s32.758-6.248 45.254-18.744l274.746-274.746v165.49c0 35.346 28.654 64 64 64s64-28.654 64-64v-384h-384z" />
<glyph unicode="&#xe6a5;" d="M1024 448c0 282.77-229.23 512-512 512s-512-229.23-512-512 229.23-512 512-512 512 229.23 512 512zM96 448c0 229.75 186.25 416 416 416s416-186.25 416-416-186.25-416-416-416-416 186.25-416 416zM557.254 146.744l256 256.002c24.994 24.992 24.994 65.514 0 90.508s-65.516 24.994-90.51 0l-146.744-146.744v357.49c0 35.346-28.654 64-64 64s-64-28.654-64-64v-357.49l-146.744 146.746c-24.994 24.994-65.518 24.994-90.512 0-12.496-12.498-18.744-28.878-18.744-45.256s6.248-32.758 18.744-45.254l256-256.002c24.994-24.992 65.518-24.992 90.51 0z" />
<glyph unicode="&#xe6a6;" d="M512-64c282.77 0 512 229.23 512 512s-229.23 512-512 512-512-229.23-512-512 229.23-512 512-512zM512 864c229.75 0 416-186.25 416-416s-186.25-416-416-416-416 186.25-416 416 186.25 416 416 416zM640 192c35.346 0 64 28.654 64 64s-28.654 64-64 64h-165.488l274.742 274.744c24.994 24.994 24.994 65.518 0 90.512-12.496 12.496-28.876 18.744-45.254 18.744s-32.758-6.248-45.254-18.744l-274.746-274.746v165.49c0 35.346-28.654 64-64 64s-64-28.654-64-64v-384h384z" />
<glyph unicode="&#xe6a7;" d="M512 960c282.77 0 512-229.23 512-512s-229.23-512-512-512-512 229.23-512 512 229.23 512 512 512zM512 32c229.75 0 416 186.25 416 416s-186.25 416-416 416-416-186.25-416-416 186.25-416 416-416zM210.744 493.254l256.002 256c24.992 24.994 65.514 24.994 90.508 0s24.994-65.516 0-90.51l-146.744-146.744h357.49c35.346 0 64-28.654 64-64s-28.654-64-64-64h-357.49l146.746-146.744c24.994-24.994 24.994-65.518 0-90.512-12.498-12.496-28.878-18.744-45.256-18.744s-32.758 6.248-45.254 18.744l-256.002 256c-24.992 24.994-24.992 65.518 0 90.51z" />
<glyph unicode="&#xe6a8;" d="M704 768h-704v-128h704v-192l256 256-256 256zM960 960v-512h64v512zM320 448l-256-256 256-256v192h704v128h-704zM0 448v-512h64v512z" />
<glyph unicode="&#xe6a9;" d="M0 960v-1024h1024v1024h-1024zM960 0h-896v896h896v-896zM768 736l-320-320-192 192-128-128 320-320 448 448-128 128z" />
<glyph unicode="&#xe6aa;" d="M0 960v-1024h1024v1024h-1024zM960 0h-896v896h896v-896z" />
<glyph unicode="&#xe6ab;" d="M0 960v-1024h1024v1024h-1024zM960 0h-896v896h896v-896zM256 704h512v-512h-512z" />
<glyph unicode="&#xe6ac;" d="M512 960c-282.77 0-512-229.23-512-512s229.23-512 512-512 512 229.23 512 512-229.23 512-512 512zM512 64c-212.078 0-384 171.922-384 384s171.922 384 384 384c212.078 0 384-171.922 384-384 0-212.078-171.922-384-384-384zM320 448c0 106.039 85.961 192 192 192s192-85.961 192-192c0-106.039-85.961-192-192-192-106.039 0-192 85.961-192 192z" />
<glyph unicode="&#xe6ad;" d="M512 960c-282.77 0-512-229.23-512-512s229.23-512 512-512 512 229.23 512 512-229.23 512-512 512zM512 64c-212.078 0-384 171.922-384 384s171.922 384 384 384c212.078 0 384-171.922 384-384 0-212.078-171.922-384-384-384z" />
<glyph unicode="&#xe6ae;" d="M832 704l192 192-64 64-192-192h-448v192h-128v-192h-192v-128h192v-512h512v-192h128v192h192v128h-192v448zM320 640h320l-320-320v320zM384 256l320 320v-320h-320z" />
<glyph unicode="&#xe6af;" d="M890.774 250.846c-45.654 45.556-103.728 69.072-157.946 69.072h-29.112l-63.904 64.008 255.62 256.038c63.904 64.010 63.904 192.028 0 256.038l-383.43-384.056-383.432 384.054c-63.904-64.008-63.904-192.028 0-256.038l255.622-256.034-63.906-64.008h-29.114c-54.22 0-112.292-23.518-157.948-69.076-81.622-81.442-92.65-202.484-24.63-270.35 29.97-29.902 70.288-44.494 112.996-44.494 54.216 0 112.29 23.514 157.946 69.072 53.584 53.464 76.742 124 67.084 185.348l65.384 65.488 65.376-65.488c-9.656-61.348 13.506-131.882 67.084-185.348 45.662-45.558 103.732-69.072 157.948-69.072 42.708 0 83.024 14.592 112.994 44.496 68.020 67.866 56.988 188.908-24.632 270.35zM353.024 114.462c-7.698-17.882-19.010-34.346-33.626-48.926-14.636-14.604-31.172-25.918-49.148-33.624-16.132-6.916-32.96-10.568-48.662-10.568-15.146 0-36.612 3.402-52.862 19.612-16.136 16.104-19.52 37.318-19.52 52.288 0 15.542 3.642 32.21 10.526 48.212 7.7 17.884 19.014 34.346 33.626 48.926 14.634 14.606 31.172 25.914 49.15 33.624 16.134 6.914 32.96 10.568 48.664 10.568 15.146 0 36.612-3.4 52.858-19.614 16.134-16.098 19.522-37.316 19.522-52.284 0.002-15.542-3.638-32.216-10.528-48.214zM512.004 293.404c-49.914 0-90.376 40.532-90.376 90.526 0 49.992 40.462 90.52 90.376 90.52s90.372-40.528 90.372-90.52c0-49.998-40.46-90.526-90.372-90.526zM855.272 40.958c-16.248-16.208-37.712-19.612-52.86-19.612-15.704 0-32.53 3.652-48.666 10.568-17.972 7.706-34.508 19.020-49.142 33.624-14.614 14.58-25.926 31.042-33.626 48.926-6.886 15.998-10.526 32.672-10.526 48.212 0 14.966 3.384 36.188 19.52 52.286 16.246 16.208 37.712 19.614 52.86 19.614 15.7 0 32.53-3.654 48.66-10.568 17.978-7.708 34.516-19.018 49.15-33.624 14.61-14.58 25.924-31.042 33.626-48.926 6.884-15.998 10.526-32.67 10.526-48.212-0.002-14.97-3.39-36.186-19.522-52.288z" />
<glyph unicode="&#xe6b0;" d="M512 960c-282.77 0-512-71.634-512-160v-96l384-384v-320c0-35.346 57.306-64 128-64 70.692 0 128 28.654 128 64v320l384 384v96c0 88.366-229.23 160-512 160zM94.384 821.176c23.944 13.658 57.582 26.62 97.278 37.488 87.944 24.076 201.708 37.336 320.338 37.336 118.628 0 232.394-13.26 320.338-37.336 39.696-10.868 73.334-23.83 97.28-37.488 15.792-9.006 24.324-16.624 28.296-21.176-3.972-4.552-12.506-12.168-28.296-21.176-23.946-13.658-57.584-26.62-97.28-37.488-87.942-24.076-201.708-37.336-320.338-37.336-118.63 0-232.394 13.26-320.338 37.336-39.696 10.868-73.334 23.83-97.278 37.488-15.792 9.008-24.324 16.624-28.298 21.176 3.974 4.552 12.506 12.168 28.298 21.176z" />
<glyph unicode="&#xe6b1;" d="M0 832l384-384v-384l256 64v320l384 384z" />
<glyph unicode="&#xe6b2;" d="M799.596 943.792c-90.526 0-148.62 16.208-241.848 16.208-301.284 0-441.792-171.584-441.792-345.872 0-102.678 48.64-136.458 144.564-136.458-6.758 14.864-18.914 31.080-18.914 104.034 0 204.010 77.006 263.458 175.636 267.51 0 0-80.918-793.374-315.778-888.542v-24.672h316.594l108.026 512h197.844l44.072 128h-214.908l51.944 246.19c59.446-12.156 117.542-24.316 167.532-24.316 62.148 0 118.894 18.914 149.968 162.126-37.826-12.16-78.362-16.208-122.94-16.208z" />
<glyph unicode="&#xe6b3;" d="M896 192h128l-160-192-160 192h128v512h-128l160 192 160-192h-128zM640 896v-256l-64 128h-192v-704h128v-64h-384v64h128v704h-192l-64-128v256z" />
<glyph unicode="&#xe6b4;" d="M256 64v-128l-192 160 192 160v-128h512v128l192-160-192-160v128zM832 896v-256l-64 128h-192v-448h128v-64h-384v64h128v448h-192l-64-128v256z" />
<glyph unicode="&#xe6b5;" d="M707.88 475.348c37.498 44.542 60.12 102.008 60.12 164.652 0 141.16-114.842 256-256 256h-320v-896h384c141.158 0 256 114.842 256 256 0 92.956-49.798 174.496-124.12 219.348zM384 768h101.5c55.968 0 101.5-57.42 101.5-128s-45.532-128-101.5-128h-101.5v256zM543 128h-159v256h159c58.45 0 106-57.42 106-128s-47.55-128-106-128z" />
<glyph unicode="&#xe6b6;" d="M704 896h128v-416c0-159.058-143.268-288-320-288-176.73 0-320 128.942-320 288v416h128v-416c0-40.166 18.238-78.704 51.354-108.506 36.896-33.204 86.846-51.494 140.646-51.494 53.8 0 103.75 18.29 140.646 51.494 33.116 29.802 51.354 68.34 51.354 108.506v416zM192 128h640v-128h-640z" />
<glyph unicode="&#xe6b7;" d="M896 896v-64h-128l-320-768h128v-64h-448v64h128l320 768h-128v64z" />
<glyph unicode="&#xe6b8;" d="M1024 448v-64h-234.506c27.504-38.51 42.506-82.692 42.506-128 0-70.878-36.66-139.026-100.58-186.964-59.358-44.518-137.284-69.036-219.42-69.036-82.138 0-160.062 24.518-219.42 69.036-63.92 47.938-100.58 116.086-100.58 186.964h128c0-69.382 87.926-128 192-128s192 58.618 192 128c0 69.382-87.926 128-192 128h-512v64h299.518c-2.338 1.654-4.656 3.324-6.938 5.036-63.92 47.94-100.58 116.086-100.58 186.964 0 70.878 36.66 139.024 100.58 186.964 59.358 44.518 137.282 69.036 219.42 69.036 82.136 0 160.062-24.518 219.42-69.036 63.92-47.94 100.58-116.086 100.58-186.964h-128c0 69.382-87.926 128-192 128-104.074 0-192-58.618-192-128 0-69.382 87.926-128 192-128 78.978 0 154.054-22.678 212.482-64h299.518z" />
<glyph unicode="&#xe6b9;" d="M704 64h256l64 128v-256h-384v214.214c131.112 56.484 224 197.162 224 361.786 0 214.432-157.598 382.266-352 382.266-194.406 0-352-167.832-352-382.266 0-164.624 92.886-305.302 224-361.786v-214.214h-384v256l64-128h256v32.59c-187.63 66.46-320 227.402-320 415.41 0 247.424 229.23 448 512 448 282.77 0 512-200.576 512-448 0-188.008-132.37-348.95-320-415.41v-32.59z" />
<glyph unicode="&#xe6ba;" d="M941.606 225.292l44.394 94.708h38l-64-384h-960v74.242l331.546 391.212-331.546 331.546v227h980l44-256h-34.376l-18.72 38.88c-35.318 73.364-61.904 89.12-138.904 89.12h-662l353.056-353.056-297.42-350.944h542.364c116.008 0 146.648 41.578 173.606 97.292z" />
<glyph unicode="&#xe6bb;" d="M0 768v-704h1024v704h-1024zM384 320v128h256v-128h-256zM640 256v-128h-256v128h256zM640 640v-128h-256v128h256zM320 640v-128h-256v128h256zM64 448h256v-128h-256v128zM704 448h256v-128h-256v128zM704 512v128h256v-128h-256zM64 256h256v-128h-256v128zM704 128v128h256v-128h-256z" />
<glyph unicode="&#xe6bc;" d="M0 896v-896h1024v896h-1024zM384 320v192h256v-192h-256zM640 256v-192h-256v192h256zM640 768v-192h-256v192h256zM320 768v-192h-256v192h256zM64 512h256v-192h-256v192zM704 512h256v-192h-256v192zM704 576v192h256v-192h-256zM64 256h256v-192h-256v192zM704 64v192h256v-192h-256z" />
<glyph unicode="&#xe6bd;" d="M384 768h128v-64h-128zM576 768h128v-64h-128zM896 768v-256h-192v64h128v128h-64v64zM320 576h128v-64h-128zM512 576h128v-64h-128zM192 704v-128h64v-64h-128v256h192v-64zM384 384h128v-64h-128zM576 384h128v-64h-128zM896 384v-256h-192v64h128v128h-64v64zM320 192h128v-64h-128zM512 192h128v-64h-128zM192 320v-128h64v-64h-128v256h192v-64zM960 896h-896v-896h896v896zM1024 960v0-1024h-1024v1024h1024z" />
<glyph unicode="&#xe6be;" d="M384 960h512v-128h-128v-896h-128v896h-128v-896h-128v512c-141.384 0-256 114.616-256 256s114.616 256 256 256z" />
<glyph unicode="&#xe6bf;" d="M512 960c-141.384 0-256-114.616-256-256s114.616-256 256-256v-512h128v896h128v-896h128v896h128v128h-512zM0 256l256 256-256 256z" />
<glyph unicode="&#xe6c0;" d="M256 960c-141.384 0-256-114.616-256-256s114.616-256 256-256v-512h128v896h128v-896h128v896h128v128h-512zM1024 768l-256-256 256-256z" />
<glyph unicode="&#xe6c1;" d="M0 768h1024v-64h-1024zM0 640h704v-64h-704zM0 512h1024v-64h-1024zM0 384h704v-64h-704zM0 256h1024v-64h-1024zM0 128h704v-64h-704z" />
<glyph unicode="&#xe6c2;" d="M0 768h1024v-64h-1024zM192 640h640v-64h-640zM192 384h640v-64h-640zM192 128h640v-64h-640zM0 512h1024v-64h-1024zM0 256h1024v-64h-1024z" />
<glyph unicode="&#xe6c3;" d="M0 768h1024v-64h-1024zM320 640h704v-64h-704zM0 512h1024v-64h-1024zM320 384h704v-64h-704zM0 256h1024v-64h-1024zM320 128h704v-64h-704z" />
<glyph unicode="&#xe6c4;" d="M0 640h1024v-64h-1024zM0 384h1024v-64h-1024zM0 128h1024v-64h-1024zM0 768h1024v-64h-1024zM0 512h1024v-64h-1024zM0 256h1024v-64h-1024z" />
<glyph unicode="&#xe6c5;" d="M0 896h1024v-128h-1024zM0 704h640v-128h-640zM0 320h640v-128h-640zM0 512h1024v-128h-1024zM0 128h1024v-128h-1024z" />
<glyph unicode="&#xe6c6;" d="M0 896h1024v-128h-1024zM192 704h640v-128h-640zM192 320h640v-128h-640zM0 512h1024v-128h-1024zM0 128h1024v-128h-1024z" />
<glyph unicode="&#xe6c7;" d="M0 896h1024v-128h-1024zM384 704h640v-128h-640zM384 320h640v-128h-640zM0 512h1024v-128h-1024zM0 128h1024v-128h-1024z" />
<glyph unicode="&#xe6c8;" d="M0 896h1024v-128h-1024zM0 704h1024v-128h-1024zM0 512h1024v-128h-1024zM0 320h1024v-128h-1024zM0 128h1024v-128h-1024z" />
<glyph unicode="&#xe6c9;" d="M0 896h1024v-128h-1024zM384 704h640v-128h-640zM384 512h640v-128h-640zM384 320h640v-128h-640zM0 128h1024v-128h-1024zM0 256v384l256-192z" />
<glyph unicode="&#xe6ca;" d="M0 896h1024v-128h-1024zM384 704h640v-128h-640zM384 512h640v-128h-640zM384 320h640v-128h-640zM0 128h1024v-128h-1024zM256 640v-384l-256 192z" />
<glyph unicode="&#xe6cb;" d="M192 896v-768h768v768h-768zM896 192h-640v640h640v-640zM128 64v640l-64 64v-768h768l-64 64zM429.254 274.746l192 192 146.746-146.746v384h-384l146.746-146.746-192-192z" />
<glyph unicode="&#xe6cc;" d="M288 704l-256-256 256-256h128l-256 256 256 256h-128zM736 704h-128l256-256-256-256h128l256 256-256 256z" />
<glyph unicode="&#xe6cd;" d="M128 448l256 256h-128l-256-256 256-256h128zM768 704h-128l256-256-256-256h128l256 256zM544 832l-160-768h96l160 768z" />
<glyph unicode="&#xe6ce;" d="M0 896v-896h1024v896h-1024zM960 64h-896v768h896v-768zM896 768h-768v-640h768v640zM448 448h-64v-64h-64v-64h-64v64h64v64h64v64h-64v64h-64v64h64v-64h64v-64h64v-64zM704 320h-192v64h192v-64z" />
<glyph unicode="&#xe6cf;" d="M864 256c-45.16 0-85.92-18.738-115.012-48.83l-431.004 215.502c1.314 8.252 2.016 16.706 2.016 25.328s-0.702 17.076-2.016 25.326l431.004 215.502c29.092-30.090 69.852-48.828 115.012-48.828 88.366 0 160 71.634 160 160s-71.634 160-160 160-160-71.634-160-160c0-8.622 0.704-17.076 2.016-25.326l-431.004-215.504c-29.092 30.090-69.852 48.83-115.012 48.83-88.366 0-160-71.636-160-160 0-88.368 71.634-160 160-160 45.16 0 85.92 18.738 115.012 48.828l431.004-215.502c-1.312-8.25-2.016-16.704-2.016-25.326 0-88.368 71.634-160 160-160s160 71.632 160 160c0 88.364-71.634 160-160 160z" />
<glyph unicode="&#xe6d0;" d="M853.31 960h-682.62c-93.88 0-170.69-76.784-170.69-170.658v-682.656c0-93.876 76.81-170.686 170.69-170.686h682.622c93.938 0 170.688 76.81 170.688 170.686v682.656c0 93.874-76.75 170.658-170.69 170.658zM256 704h512c9.138 0 18.004-1.962 26.144-5.662l-282.144-329.168-282.144 329.17c8.14 3.696 17.006 5.66 26.144 5.66zM192 256v384c0 1.34 0.056 2.672 0.14 4l187.664-218.94-185.598-185.6c-1.444 5.338-2.206 10.886-2.206 16.54zM768 192h-512c-5.654 0-11.202 0.762-16.54 2.206l182.118 182.118 90.422-105.496 90.424 105.494 182.116-182.118c-5.34-1.442-10.886-2.204-16.54-2.204zM832 256c0-5.654-0.762-11.2-2.206-16.54l-185.598 185.598 187.664 218.942c0.084-1.328 0.14-2.66 0.14-4v-384z" />
<glyph unicode="&#xe6d1;" d="M853.342 960h-682.656c-93.874 0-170.686-76.81-170.686-170.69v-682.622c0-93.938 76.812-170.688 170.686-170.688h682.656c93.876 0 170.658 76.75 170.658 170.69v682.62c0 93.88-76.782 170.69-170.658 170.69zM853.342 832c7.988 0 15.546-2.334 22.020-6.342l-363.362-300.404-363.354 300.4c6.478 4.010 14.044 6.346 22.040 6.346h682.656zM170.686 64c-1.924 0-3.82 0.146-5.684 0.408l225.626 312.966-29.256 29.254-233.372-233.37v611.138l384-464.396 384 464.394v-611.136l-233.372 233.37-29.254-29.254 225.628-312.968c-1.858-0.26-3.746-0.406-5.662-0.406h-682.654z" />
<glyph unicode="&#xe6d2;" d="M853.342 960h-682.656c-93.874 0-170.686-76.81-170.686-170.69v-682.622c0-93.938 76.812-170.688 170.686-170.688h682.656c93.876 0 170.658 76.75 170.658 170.69v682.62c0 93.88-76.782 170.69-170.658 170.69zM182.628 73.374l-77.256 77.254 256 256 29.256-29.254-208-304zM153.372 761.372l29.256 29.256 329.372-265.374 329.374 265.374 29.254-29.256-358.628-422.626-358.628 422.626zM841.374 73.374l-208 304 29.254 29.254 256-256-77.254-77.254z" />
<glyph unicode="&#xe6d3;" d="M512 960c-282.77 0-512-229.23-512-512s229.23-512 512-512 512 229.23 512 512-229.23 512-512 512zM256 704h512c9.138 0 18.004-1.962 26.144-5.662l-282.144-329.168-282.144 329.17c8.14 3.696 17.006 5.66 26.144 5.66zM192 256v384c0 1.34 0.056 2.672 0.14 4l187.664-218.942-185.598-185.598c-1.444 5.336-2.206 10.886-2.206 16.54zM768 192h-512c-5.654 0-11.202 0.762-16.54 2.208l182.118 182.118 90.422-105.498 90.424 105.494 182.116-182.12c-5.34-1.44-10.886-2.202-16.54-2.202zM832 256c0-5.654-0.762-11.2-2.206-16.54l-185.6 185.598 187.666 218.942c0.084-1.328 0.14-2.66 0.14-4v-384z" />
<glyph unicode="&#xe6d4;" d="M789.534 896c0 0-200.956 0-267.94 0-120.122 0-233.17-91.006-233.17-196.422 0-107.726 81.882-194.666 204.088-194.666 8.498 0 16.756 0.17 24.84 0.752-7.928-15.186-13.6-32.288-13.6-50.042 0-29.938 16.104-54.21 36.468-74.024-15.386 0-30.242-0.448-46.452-0.448-148.782 0.002-263.3-94.76-263.3-193.022 0-96.778 125.542-157.312 274.334-157.312 169.624 0 263.306 96.244 263.306 193.028 0 77.602-22.896 124.072-93.686 174.134-24.216 17.142-70.532 58.836-70.532 83.344 0 28.72 8.196 42.868 51.428 76.646 44.312 34.624 75.674 83.302 75.674 139.916 0 67.406-30.022 133.098-86.374 154.772h84.956l59.96 43.344zM695.948 240.542c2.126-8.972 3.284-18.208 3.284-27.628 0-78.2-50.39-139.31-194.974-139.31-102.842 0-177.116 65.104-177.116 143.3 0 76.642 92.126 140.444 194.964 139.332 24-0.254 46.368-4.116 66.668-10.69 55.828-38.828 95.876-60.76 107.174-105.004zM531.286 532.224c-69.038 2.064-134.636 77.226-146.552 167.86-11.916 90.666 34.37 160.042 103.388 157.99 69.008-2.074 134.636-74.814 146.558-165.458 11.906-90.66-34.39-162.458-103.394-160.392z" />
<glyph unicode="&#xe6d5;" d="M559.066 896c0 0-200.956 0-267.94 0-120.12 0-233.17-91.006-233.17-196.422 0-107.726 81.882-194.666 204.088-194.666 8.498 0 16.756 0.17 24.842 0.752-7.93-15.186-13.602-32.288-13.602-50.042 0-29.938 16.104-54.21 36.468-74.024-15.386 0-30.242-0.448-46.452-0.448-148.782 0.002-263.3-94.758-263.3-193.020 0-96.778 125.542-157.314 274.334-157.314 169.624 0 263.306 96.244 263.306 193.028 0 77.6-22.896 124.072-93.686 174.134-24.216 17.144-70.53 58.836-70.53 83.344 0 28.72 8.196 42.868 51.428 76.646 44.312 34.624 75.672 83.302 75.672 139.916 0 67.406-30.020 133.098-86.372 154.772h84.954l59.96 43.344zM465.48 240.542c2.126-8.972 3.284-18.206 3.284-27.628 0-78.2-50.392-139.31-194.974-139.31-102.842 0-177.116 65.104-177.116 143.3 0 76.642 92.126 140.444 194.964 139.332 24-0.254 46.368-4.116 66.67-10.69 55.826-38.826 95.876-60.762 107.172-105.004zM300.818 532.224c-69.038 2.064-134.636 77.226-146.552 167.86-11.916 90.666 34.37 160.042 103.388 157.99 69.010-2.074 134.638-74.814 146.558-165.458 11.906-90.66-34.39-162.458-103.394-160.392zM832 704v192h-64v-192h-192v-64h192v-192h64v192h192v64z" />
<glyph unicode="&#xe6d6;" d="M853.512 960h-684.27c-94.1 0-169.242-77.786-169.242-171.878v-680.352c0-96.422 75.142-171.77 169.242-171.77h684.268c94.096 0 170.49 75.348 170.49 171.77v680.352c0 94.092-76.394 171.878-170.488 171.878zM704 928v-160h-160v160h160zM480 928v-160h-160v160h160zM32 768v20.122c0 77.128 61.566 139.878 137.242 139.878h86.758v-160h-224zM768 320h-192v-192h-128v192h-192v128h192v192h128v-192h192v-128zM992 768h-224v160h85.512c76.364 0 138.488-62.75 138.488-139.878v-20.122z" />
</font>
</defs>
</svg>
